<?xml version="1.0" standalone="no"?>
<!DOCTYPE svg PUBLIC "-//W3C//DTD SVG 1.1//EN" "http://www.w3.org/Graphics/SVG/1.1/DTD/svg11.dtd" >
<svg xmlns="http://www.w3.org/2000/svg" xmlns:xlink="http://www.w3.org/1999/xlink" version="1.1">
<metadata>
Created by FontForge 20190801 at Fri Mar  2 07:31:59 2018
 By Jimmy Wärting
Typeface (c) (your company). 2018. All Rights Reserved
</metadata>
<defs>
<font id="DoctorGlitch" horiz-adv-x="1014" >
  <font-face 
    font-family="Doctor Glitch"
    font-weight="400"
    font-stretch="normal"
    units-per-em="2048"
    panose-1="2 0 5 0 0 0 0 0 0 0"
    ascent="1638"
    descent="-410"
    x-height="1641"
    cap-height="1641"
    bbox="-389 -246 2699 1647"
    underline-thickness="150"
    underline-position="-292"
    unicode-range="U+001D-F002"
  />
<missing-glyph horiz-adv-x="1024" 
d="M100 0v1434h824v-1434h-824zM150 50h724v1334h-724v-1334zM325 1148q31 28 58 43q53 30 112 30q92 0 148 -47.5t56 -127.5q0 -49 -23 -98.5t-87 -129.5q-63 -80 -99 -132t-36 -99q0 -38 24 -133h-32q-35 97 -35 148q0 76 81.5 218t81.5 217q0 57 -33 90t-91 33
q-38 0 -69 -17q-26 -15 -56 -40v45zM389 334l57 58q11 10 20 10q10 0 22 -11l56 -60q9 -11 9 -20q0 -11 -10 -22l-56 -62q-14 -14 -21 -14q-11 0 -20 10l-61 71q-7 9 -7 18q0 10 11 22z" />
    <glyph glyph-name=".notdef" horiz-adv-x="1024" 
d="M100 0v1434h824v-1434h-824zM150 50h724v1334h-724v-1334zM325 1148q31 28 58 43q53 30 112 30q92 0 148 -47.5t56 -127.5q0 -49 -23 -98.5t-87 -129.5q-63 -80 -99 -132t-36 -99q0 -38 24 -133h-32q-35 97 -35 148q0 76 81.5 218t81.5 217q0 57 -33 90t-91 33
q-38 0 -69 -17q-26 -15 -56 -40v45zM389 334l57 58q11 10 20 10q10 0 22 -11l56 -60q9 -11 9 -20q0 -11 -10 -22l-56 -62q-14 -14 -21 -14q-11 0 -20 10l-61 71q-7 9 -7 18q0 10 11 22z" />
    <glyph glyph-name=".null" horiz-adv-x="0" 
 />
    <glyph glyph-name=".null" horiz-adv-x="0" 
 />
    <glyph glyph-name="nonmarkingreturn" horiz-adv-x="508" 
 />
    <glyph glyph-name="space" unicode=" " horiz-adv-x="508" 
 />
    <glyph glyph-name="space" unicode="&#xa0;" horiz-adv-x="508" 
 />
    <glyph glyph-name="exclam" unicode="!" horiz-adv-x="613" 
d="M82 1644h98q6 0 6 -7l13 7h326q14 -12 59 -20q0 -117 -39 -117h-13q-13 -185 -13 -358q-17 -14 -33 -14v-39q26 -3 26 -19v-7q0 -13 -13 -13h-59q-13 -2 -13 -13v-6h65q13 -2 13 -13v-66h33l13 -6q0 -94 -19 -489q6 0 6 -7q-16 -13 -19 -13h-177q-55 0 -176 7l-6 13
q-13 344 -13 482q-52 0 -52 85l-13 7h-59q-13 0 -13 13l13 6h59q13 0 13 13v7q-39 23 -39 58q32 7 32 14q0 55 -6 358l13 7h6l13 -7l7 13v98q0 13 -39 13v13zM401 229q120 0 183 -130q0 -9 -39 -20q0 -10 -13 -26q26 -10 26 -19v-46q-60 -176 -196 -176q-182 0 -222 39
q-91 82 -91 196h-13v19q76 24 85 39q0 53 104 105l20 13h39q56 0 117 6z" />
    <glyph glyph-name="quotedbl" unicode="&#x22;" horiz-adv-x="869" 
d="M60 1052l5 11l-6 28q0 6 5 6l-6 39l2 45l5 34l-6 11l6 11l-7 22q0 12 6 12l-7 56l-1 67q-1 53 3 129q-6 21 -7 44l11 6l45 1l23 -33h28q0 34 11 34l39 1q11 0 11 -11l1 -39h11q0 17 11 17l112 2q11 2 11 12l-1 50q2 11 11 12q11 0 12 -11l8 -583q1 -14 -22 -17l1 -56
q1 -12 -11 -12l-112 -2l-22 -28l-5 11l-1 50l-56 -1q0 -34 -11 -34h-17q-11 0 -12 33l-50 -1q-11 2 -11 11l-1 51q-1 12 -6 22zM470 1052l5 12l-6 27q0 6 6 6l-7 39l2 45l5 34l-6 11l6 12l-6 22q-1 11 5 11l-7 56l-1 67q-1 54 3 129q-6 22 -6 45l11 6l44 1l24 -34l28 1
q-1 34 10 34l39 1q11 0 12 -11v-40l12 1q-1 16 11 17l112 2q11 2 11 11l-1 51q1 11 11 11q11 0 11 -11l8 -583q1 -14 -22 -17l2 -56q0 -11 -11 -11l-112 -3l-22 -28l-6 11l-1 51l-56 -2q1 -33 -11 -33l-16 -1q-12 0 -12 34l-51 -1q-11 1 -11 11l-1 50q0 13 -6 22z" />
    <glyph glyph-name="numbersign" unicode="#" horiz-adv-x="2758" 
d="M88 1417h139q156 0 231 -115q29 0 37 -27q14 -31 14 -65q6 7 23 75q28 57 58 57q14 0 14 7q-24 0 -24 10q24 27 75 38q42 20 108 20h7q47 0 95 -20v-4l-4 -7q60 -37 75 -37h17v-7h-20q54 -71 54 -112v-3h-41v-3q20 0 24 -4q6 4 14 4q6 0 6 -21q17 0 17 7q0 37 27 88
q-5 4 -20 4q8 37 61 71h4v3h-34v4q36 36 122 37h10q75 0 142 -37q60 0 85 -44q27 -22 27 -41q-71 -44 -88 -44h-13q-57 71 -109 71q-10 0 -58 -17v-3q14 0 14 -7q-43 -41 -51 -88q-37 -4 -37 -11q40 0 40 -23q0 -34 31 -82h-17q0 -18 78 -37q102 22 102 41q-14 0 -14 3
q4 11 21 27h13q65 -30 82 -30q27 -7 27 -14v-3q0 -4 -27 -14q-11 -27 -44 -27q-7 -1 -7 -7q20 0 20 -7q-76 -64 -149 -64h-34q-97 0 -173 71h-24v7h17v3q-27 36 -27 45h-3q0 -11 -7 -11h-31q-7 -6 -27 -6v-4h14v-7q-68 -98 -194 -98q-131 0 -210 105h-3v4q0 6 33 6
q-27 55 -27 92l7 3h58v7h-61l-14 10h-24v7h11v3q0 4 -14 11l-7 -4h-20q0 -10 -7 -10h-17v-13h17q7 0 7 -11q0 -35 -31 -98h31v-7h-34q-27 -30 -31 -30h-37l-17 -4v-7h44v-6q-77 -58 -142 -58h-180q-7 0 -7 7v57h-41q-6 0 -6 7v4h47v23q0 7 34 7v4q-34 2 -34 10v95l-24 13
q26 16 51 21v91q-27 4 -27 10v102q1 7 7 7zM1438 1417h339q7 0 14 -34v-47q0 -7 -7 -7h-105v-58q-10 -17 -37 -17l24 -13q0 -14 3 -28q-6 -3 -14 -3v-98q0 -7 -10 -7v-4q27 0 27 -10v-125q0 -7 -6 -7h-109q-10 0 -10 54v82q-17 2 -17 10v102q0 6 20 6v7q-10 0 -10 7v20h-17
v7q12 0 27 10h4v58q0 7 -7 7h-102q-7 0 -7 7v57l-7 10v7q1 7 7 7zM2012 1417h6q48 0 95 -20v-4l-3 -7q59 -37 75 -37h17v-7h-21q54 -71 54 -112v-3h-40v-3q19 0 23 -4q6 4 14 4q7 0 10 -38h21v44q0 7 13 7v10h-17q-3 0 -17 17l10 14v108q0 7 11 7v17q1 7 6 7h187
q95 0 95 -27q58 -41 58 -112q-4 -35 -4 -41h7v-3q0 -44 -78 -85h-7l17 -27v-7q-7 0 -7 -7h-37v-7h41q41 -28 41 -33q-7 -1 -7 -7l51 -75q-7 -1 -7 -7q10 -3 10 -20h-129q-12 6 -17 20l7 4l-48 78q7 0 7 7q0 12 -47 33h-24v-91h20v-7h-20v-37q0 -7 -7 -7h-112q-7 0 -7 7v30
q1 7 7 7h17v7h-17q-7 0 -7 7v68h-3q0 -11 -7 -11h-30q-7 -6 -27 -6v-4h13v-7q-68 -98 -193 -98q-132 0 -211 105h-3v4q0 6 34 6q-27 55 -27 92l7 3h57v7h-61l-13 10h-24v7h10v3q0 7 -14 7q28 139 79 139q13 0 13 7q-24 0 -24 10q24 27 75 38q43 20 109 20zM2378 1329v-51
q0 -10 -14 -10v-10q14 0 14 -11h24v-3q0 -7 -14 -7v-17h58q24 0 57 27q-15 0 -20 4l4 7v27q0 28 -45 44h-64zM203 1319v-17h21q6 -1 6 -7v-85q-30 -17 -47 -17v-13h17l7 -4l-4 -24v-40l4 -21q-4 -6 -4 -10q4 -6 4 -10h30v-7h-30q0 -7 -4 -13l7 -4h24l78 17h24v4l-17 3h-11v7
q51 36 51 102h-17q-6 0 -6 6l30 17h20v4q-21 95 -74 95q-48 23 -75 23h-27q-7 -1 -7 -6zM634 1207q5 0 10 -11q-6 -3 -10 -3v-7h24l13 -10h58v-7q-3 0 -3 4l-7 -4h-51q0 -47 58 -88v-7h-21q-4 0 -10 -10q23 0 58 -7q11 0 61 17q56 0 78 51q9 0 14 51v10h-28q-10 0 -10 34
h-57v7h54q-39 92 -109 92q-81 0 -118 -95zM1883 1207q5 0 10 -11q-7 -3 -10 -3v-7h23l14 -10h58v-7q-4 0 -4 4l-7 -4h-50q0 -47 57 -88v-7h-20q-5 0 -10 -10q23 0 57 -7q12 0 61 17q56 0 78 51q10 0 14 51v10h-27q-10 0 -10 34h-58v7h54q-38 92 -108 92q-82 0 -119 -95z
M74 1302q7 -1 7 -7q0 -7 -7 -7q-6 0 -6 7q1 7 6 7zM1499 1254h7v-7h-7v7zM319 1203h10q7 -1 7 -7l-7 -3h-10q-7 0 -7 7zM990 1193q1 -7 7 -7h7v7h-14zM44 1193q7 -1 7 -7t-7 -6t-7 6q1 7 7 7zM1062 1186v-3h6v3h-6zM522 1176h17v-7h-17v7zM1771 1176h17v-7h-17v7zM719 1142
h10v-3q0 -7 -7 -7l-3 7v3zM1967 1142h11v-3q0 -7 -7 -7l-4 7v3zM2378 1115v-7h27q3 0 10 10q-7 11 -7 17h-13l-14 -20h-3zM532 1125h4q7 -1 7 -7l-7 -3h-4q-6 0 -6 7zM1781 1125h3q7 -1 7 -7l-7 -3h-3q-7 0 -7 7zM1014 1118q0 -5 -7 -27h21q-10 19 -10 27h-4zM2334 1108v-7
h34v7h-34zM1238 1095h10q7 -1 7 -7q-20 -17 -34 -17h-7v7q6 0 24 17zM420 867q51 0 120 -28v-8h-12q43 -28 92 -88q20 -1 20 -12q-43 -35 -120 -64h-8q-4 0 -52 56l4 8q-18 12 -76 20h-16q-42 0 -112 -60h-12v-8h60v-8h-52q-20 -54 -20 -80q4 -48 12 -64l-8 -4h-44
q44 -76 84 -76h28q75 -12 80 -12q72 12 100 40q32 37 32 48h-148q-8 0 -8 8v48q8 10 8 16l-4 20h184q34 0 108 4l12 -20v-4q-16 -17 -16 -64v-4h8v-4q0 -56 -52 -84q-81 -116 -216 -116h-28q-141 0 -236 124h-48q-32 44 -32 68q1 8 8 8h44q-8 41 -8 72q0 68 20 76h44v8h-52
v8q8 0 44 72q58 72 116 72q49 32 152 32zM688 867h132q5 0 20 -32v-36q0 -6 -16 -16h-20v-12q24 0 24 -8v-204q12 0 12 -8v-112q1 -8 8 -8h168q8 -1 8 -8v-60q0 -8 -8 -8h-4q-4 0 -4 4q-8 -4 -12 -4v-4q28 0 28 -8v-8q0 -8 -8 -8h-312q-5 0 -16 28q8 0 8 8v184l-16 16v208
h-16v8q8 0 32 12v44l-16 16v8q1 8 8 8zM1060 867h132q8 0 8 -24h16q0 24 8 24h400q8 0 16 -40v-60q45 48 60 48v4h-40v4q43 43 144 44h12q89 0 168 -44q70 0 100 -52q32 -25 32 -48q-84 -52 -104 -52h-16q-67 84 -128 84q-12 0 -68 -20v-4q16 0 16 -8q-50 -48 -60 -104
q-44 -4 -44 -12q48 0 48 -28q0 -40 36 -96h-20q0 -21 92 -44q120 25 120 48q-16 0 -16 4q4 13 24 32h16q76 -36 96 -36q32 -8 32 -16v-4q0 -5 -32 -16q-13 -32 -52 -32q-8 -1 -8 -8q24 0 24 -8q-90 -76 -176 -76h-40q-114 0 -204 84h-28v8h20v4q-26 35 -36 56q4 4 32 4
q-19 47 -32 108l4 8v4h-32q-8 0 -8 8q44 5 44 12q0 44 32 104q-6 4 -24 4q0 13 12 28v4h-128v-68q-11 -20 -44 -20l28 -16q0 -16 4 -32q-7 -4 -16 -4v-116q0 -8 -12 -8v-4q32 0 32 -12v-148q0 -8 -8 -8h-128q-12 0 -12 64v96q-20 3 -20 12v120q0 8 24 8v8q-12 0 -12 8v24
h-20v8q14 0 32 12h4v68q0 8 -8 8h-120q-8 0 -8 8v64h-24v-240h20q8 -1 8 -8q0 -8 -8 -8h-52v-16h40q8 -1 8 -8v-140q0 -8 -16 -8v-64q16 0 16 -8t-8 -8h-132q-19 24 -24 24l4 8v40l-20 20q1 8 8 8h4q8 0 8 -20h12v156h-40q-8 0 -8 8q1 8 8 8h52v8l-28 16v228q0 4 -4 4
q4 32 12 32zM2160 867h132q8 -1 8 -8v-140q0 -8 -8 -8h-20v-8q1 -8 8 -8h20v-4l-4 -8q16 -5 16 -36h192v24q-16 12 -16 24h-56q-8 0 -8 8l8 4h56v152q1 8 8 8h128q8 -1 8 -8v-148h-20l-24 -4q-7 4 -20 4v-16h64q0 -15 16 -24v-136h20q8 -1 8 -8v-4q0 -8 -8 -8h-20v-40
q0 -8 -16 -8v-140h-136q-8 0 -8 8v128q0 8 16 8v36l24 16v4q0 5 -32 16h-184v-72h32q8 -1 8 -8q0 -8 -8 -8h-52q-8 -1 -8 -8v-112q0 -8 -8 -8h-128q-8 0 -8 8v112q1 8 8 8h48q8 0 8 8v8h-32q-8 0 -8 8v192q-12 13 -12 24h-20q-8 0 -8 8q28 5 28 12v108q0 4 4 4l-4 8v24
q1 8 8 8zM1068 843v-8h8v8h-8zM80 691h4v-8h-4v8zM1296 675h8v-8h-8v8zM336 623h8q8 -1 8 -8v-4h-16q-8 0 -8 8zM308 619h8v-8h-8v8zM1680 595v-4h8v4h-8zM2468 535h12q8 -1 8 -8q0 -8 -8 -8h-12q-8 0 -8 8q1 8 8 8zM1888 487h12q8 -1 8 -8q-23 -20 -40 -20h-8v8q7 0 28 20z
M94 280h55q4 0 17 -38q3 0 3 -3l-3 -14q13 -50 20 -61l-7 -10h7l14 10q0 3 -4 3q14 69 28 69v3q0 7 -7 7q9 34 17 34h51q5 0 17 -38h4v-6q0 -4 -4 -4q17 -60 24 -68l-7 -10h4q14 0 24 61q17 65 24 65h54l7 -3q-14 -54 -31 -110q4 0 4 -3q-15 -10 -28 -10v-4q16 -7 24 -7v-3
q0 -2 -7 -10q0 -2 4 -14q-17 -64 -31 -75h-61q-6 0 -24 79l-11 23l-20 4v7q9 0 17 7l-3 6q3 19 3 28l-7 3q-3 -25 -7 -31q4 0 4 -3q-13 -10 -27 -10v-4q15 -7 23 -7v-6h-6q0 -12 3 -17q-17 -79 -24 -79h-65q-6 0 -27 82q-5 0 -10 20l-21 4v7l17 7q-10 12 -24 71q7 0 7 7
q-12 0 -17 38zM545 280q36 0 75 -34q37 -26 37 -85q7 3 11 3q0 7 -7 7q12 68 44 68v3h-7v7q0 18 96 31q40 0 92 -48q21 -37 21 -54v-14h3q20 3 20 10v38q0 7 -13 7v54q1 7 7 7h58q89 0 129 -61q28 -9 28 -48h3q10 40 10 48q-6 0 -6 6q22 28 30 28v3h-10v4q16 20 61 20
q28 0 86 -20q19 0 48 -38v-7q0 -9 -48 -24q-38 38 -58 38q-26 -7 -28 -7l4 -7q-21 -21 -27 -48h-17v-3q22 0 27 -41q3 0 3 -14h-3v-3q30 -14 37 -14q52 8 52 17q-4 7 -4 11q11 10 17 10q34 -17 58 -24q0 7 14 7q-7 22 -7 30l7 4l-3 17q0 8 3 14q0 6 -21 23q2 7 7 7l-3 17v48
q1 7 7 7h51q7 -1 7 -7v-54q0 -4 3 -4l-7 -17q17 -4 17 -10v-31q0 -15 -6 -27q5 0 10 -10v-4q0 -7 -10 -7q13 -20 34 -20q8 0 51 31v71q-11 0 -17 4l3 24v54q1 7 7 7h536q7 -1 7 -7v-27h7q1 29 13 34h86q82 -5 82 -58q3 0 3 -14v-24q-12 -44 -41 -44q7 -11 7 -20h-20v-4
q29 0 41 -17q0 -3 -4 -3q27 -43 27 -52l-6 -3h-58q-5 0 -11 10l4 7q-20 18 -28 48q-5 0 -17 10l4 7v3q0 7 -7 7h-3q0 -10 -7 -10q0 -3 3 -3l-3 -18v-30q0 -4 3 -4q-3 -27 -10 -27h-51q-7 0 -7 7v10q0 7 10 7v3q-5 0 -14 7h-3v-27q0 -7 -7 -7h-143q-7 0 -7 7v20h-10v7h24v4
h-11l4 17q-6 0 -10 34l3 7v24l-7 10l7 3q1 -7 7 -7h13v55q-10 0 -10 10h-51v-27q0 -10 -17 -10v-4q10 0 14 -17q-7 -3 -11 -3v-55q11 0 11 -7v-61q0 -7 -7 -7h-51q-7 0 -7 7v65h-14l3 17v37q0 7 11 7q-7 14 -7 21q5 0 10 10v27h-99v-27q0 -10 -17 -10v-4q10 0 14 -17
q-7 -1 -7 -7v-44l-4 -7q11 0 11 -7v-61q0 -7 -7 -7h-51q-7 0 -7 7v65h-10l3 17v37q1 7 7 7l-7 21q5 0 10 10v27h-58v-13q0 -4 4 -4l-11 -17q21 -4 21 -10v-72q-16 -9 -31 -41q-29 -34 -75 -34q-89 0 -113 61q-5 0 -30 -20h-11v-3h7v-4q-31 -34 -82 -34h-3q-76 0 -113 61v11
h10q-10 44 -17 44q-5 4 -17 4h-7v-4q14 0 14 -7q-12 -61 -27 -61q0 -10 -34 -10v-4h20v-7q-42 -27 -78 -27h-82q-7 0 -7 7v27h-24v7h24q0 14 10 14v3q-10 0 -10 10h-4q0 -11 -27 -13q-29 -55 -96 -55q-77 0 -112 58v3h13q-10 31 -10 41q0 7 31 7v4q-34 0 -34 -4
q-6 -51 -31 -51q-4 0 -41 -38q-28 -20 -68 -20q-73 0 -109 58v3q13 0 13 4q-7 11 -13 41q0 3 34 3v4q-27 0 -48 3v4l3 6q-7 0 -7 7q14 65 41 65h4v3h-7v7q34 31 96 31zM2361 280h140q7 -1 7 -7v-27q14 0 14 -7l-11 -7h-85v-3l14 -14v-31h75v-20h-17v-21q0 -6 -7 -6h-62
l-17 -4q5 -4 10 -41l7 -3h72q2 0 10 -7q-3 -41 -10 -41h-140q-7 0 -7 7v20h-10q0 -27 -27 -27h-11q-27 0 -27 34q21 21 34 21h7q24 0 24 -21h24v4q-14 0 -14 6q7 0 7 7q-6 8 -10 38l3 7v24l-7 10l17 -4h11v55q-14 0 -14 7v3l7 10q-14 0 -14 7v24q1 7 7 7zM2597 280h6
q76 -13 76 -34q-26 -34 -45 -34q-21 20 -34 20q-14 -5 -14 -10v-14q13 0 38 -20q65 -24 65 -38q-7 -1 -7 -7q17 -1 17 -10v-3l-14 -41q0 -9 -6 -17h10v-4q-14 -27 -72 -27q-35 0 -78 31q-19 0 -24 17v3q2 8 54 31q15 -31 34 -31h11q5 0 13 14v3l-3 17q3 0 3 4q-92 24 -92 68
q4 0 4 3q-17 8 -17 18q16 61 75 61zM91 242v-6h-7q1 6 7 6zM1982 232v-10q10 0 10 -7v-31h72q7 -1 7 -6v-7q0 -7 -21 -7v-21q0 -6 -6 -6h-55l-24 -4v-3q14 0 14 -41h78q7 0 7 -10h7v34l-4 7q7 3 11 3v51l3 17q-8 0 -14 4l4 24v13h-89zM2136 232v-24l-7 -10q17 -8 17 -10
q-3 -7 -3 -10h37q17 9 17 13q-6 0 -10 31q-13 10 -24 10h-27zM982 229v-10q13 0 13 -7v-38q0 -7 -27 -13v-4q14 0 14 -7v-48q0 -3 3 -3l-3 -7v-3h20q24 7 41 7v3h-7v3q24 32 24 52h-10v10l24 3q0 47 -68 62h-24zM476 174v-13q13 0 21 -7l-4 -7q0 -17 28 -45q-7 -3 -11 -3v-3
l31 -4q0 7 48 14q24 23 24 48v3q-17 0 -17 17h-27v7h23v3q-22 41 -51 41h-7q-58 -12 -58 -51zM726 171q0 -7 20 -17l-3 -7q0 -17 27 -45q-7 -3 -10 -3v-3q12 0 30 -4q0 7 48 14q25 23 28 51q-21 0 -21 17h-27v7h24v3q-20 41 -52 41h-6q-58 -12 -58 -54zM1040 167h7v-6h-7v6z
M166 154v-4h10v4h-10zM306 154v-4h6v4h-6zM176 147v-4h10v4h-10zM319 147v-4h7v4h-7zM193 137v-7q1 -7 7 -7q0 13 7 20h-7q-7 -1 -7 -6zM333 133q3 -6 3 -10h4q0 9 7 20h-7q-7 0 -7 -10zM422 130h3v-7h-3v7zM2115 120v-4h14v4h-14zM1265 113h3v-4q0 -5 -10 -10h-7v7
q6 0 14 7zM2030 75v-3h14v3h-14zM2477 75v-3h10v3h-10z" />
    <glyph glyph-name="dollar" unicode="$" 
 />
    <glyph glyph-name="percent" unicode="%" horiz-adv-x="1610" 
 />
    <glyph glyph-name="ampersand" unicode="&#x26;" horiz-adv-x="1482" 
d="M597 1644h447q13 -2 13 -14v-169q0 -10 -20 -20h-54v-129q0 -13 -14 -13h-61q-101 0 -277 -7q-16 0 -102 -54v-21q15 0 27 -6q-12 -63 -27 -82v-20q12 -90 61 -142q-27 -30 -27 -41q79 -47 318 -47q14 0 14 13l-21 27v14q10 0 55 20h13v170q0 20 176 20h298q14 -2 14 -14
q-7 -74 -7 -128q7 -36 7 -41q-70 -27 -75 -27v-27q38 -27 54 -27h197q13 -2 13 -14v-298q0 -13 -13 -13h-176l-7 -34v-163q0 -13 -75 -20l-6 -47v-14l47 -27q0 -113 -190 -298q-52 -47 -135 -47q-19 0 -190 -68q-63 -27 -216 -27h-82q-157 14 -270 61q-55 14 -55 27v7h34v20
q-151 91 -223 271q0 68 -54 68q-21 0 -21 13v68h55q9 0 20 20v41q0 147 162 318v7q-67 74 -115 156q-28 0 -67 20q-10 0 -21 20q0 11 61 34q-27 54 -27 203v34l7 14l-48 13q4 70 68 197l21 20h74q126 203 420 203zM-60 953h68v-13h-68v13zM495 344h-47v-27q0 -6 13 -54h55
q97 -102 209 -102h61q102 65 102 102h-7l-34 -7l-6 13q29 75 54 75q47 0 47 13v197h-217q-120 0 -196 -129q-22 -81 -34 -81z" />
    <glyph glyph-name="quotesingle" unicode="'" horiz-adv-x="407" 
d="M40 1052l5 11l-6 28q0 6 6 6l-7 39l2 45l5 34l-6 11l6 11l-6 23q0 11 5 11l-7 56l-1 67q-1 53 3 129q-6 21 -6 45l11 5l45 1l23 -33l28 1q-1 33 10 33l39 1q12 0 12 -11l1 -39h11q-1 17 11 17l112 3q11 2 11 11l-1 50q1 12 11 12q11 0 11 -11l9 -583q0 -14 -23 -17l2 -56
q0 -11 -11 -12l-112 -2l-22 -28l-6 11l-1 50l-56 -1q1 -33 -11 -34h-16q-12 0 -12 33l-51 -1q-11 2 -11 11l-1 51q0 12 -6 22z" />
    <glyph glyph-name="parenleft" unicode="(" horiz-adv-x="758" 
 />
    <glyph glyph-name="parenright" unicode=")" horiz-adv-x="758" 
 />
    <glyph glyph-name="asterisk" unicode="*" horiz-adv-x="1024" 
 />
    <glyph glyph-name="plus" unicode="+" horiz-adv-x="1260" 
d="M484 595h-312q-14 0 -17 22h-56q-11 0 -11 12v112l-28 22l11 6h51v56q-34 0 -34 11v17q0 11 34 11v50q1 11 11 11h50q13 0 23 6l11 -6l28 6q5 0 5 -6l40 6h188l-6 328q0 14 22 18l-1 56q0 11 11 11l112 2l22 28l6 -11l1 -50l56 1q-1 33 11 34h16q12 0 12 -33h51
q11 -1 11 -11l1 -50q0 -13 6 -22l-6 -12l6 -27q1 -6 -5 -6l6 -39l4 -221l13 -2l12 6l11 -6l22 6q11 0 11 -6l56 6h68q53 0 128 -6q22 6 45 6l6 -11v-45l-34 -22v-28q34 0 34 -12v-39q0 -11 -11 -11h-40v-11q17 0 17 -11v-112q2 -12 11 -12h51q11 -1 11 -11q0 -11 -11 -11
h-396l-3 -7l6 -23q0 -11 -6 -11l7 -56l1 -67q1 -53 -3 -129q6 -22 6 -45l-11 -5l-45 -1l-23 33l-28 -1q1 -33 -10 -33l-40 -1q-11 0 -11 11l-1 39h-11q0 -17 -11 -17l-112 -2q-11 -2 -11 -11l1 -51q-2 -11 -11 -11q-11 0 -11 11z" />
    <glyph glyph-name="comma" unicode="," horiz-adv-x="557" 
 />
    <glyph glyph-name="hyphen" unicode="-" horiz-adv-x="1260" 
d="M206 931l11 -6l28 6q5 0 5 -6l40 6h504l33 -6l12 6l11 -6l22 6q11 0 11 -6l56 6h68q53 0 128 -6q22 6 45 6l6 -11v-45l-34 -22v-28q34 0 34 -12v-39q0 -11 -11 -11h-40v-11q17 0 17 -11v-112q2 -12 11 -12h51q11 -1 11 -11q0 -11 -11 -11h-1042q-14 0 -17 22h-56
q-11 0 -11 12v112l-28 22l11 6h51v56q-34 0 -34 11v17q0 11 34 11v50q1 11 11 11h50q13 0 23 6z" />
    <glyph glyph-name="hyphen" unicode="&#xad;" horiz-adv-x="1260" 
d="M206 931l11 -6l28 6q5 0 5 -6l40 6h504l33 -6l12 6l11 -6l22 6q11 0 11 -6l56 6h68q53 0 128 -6q22 6 45 6l6 -11v-45l-34 -22v-28q34 0 34 -12v-39q0 -11 -11 -11h-40v-11q17 0 17 -11v-112q2 -12 11 -12h51q11 -1 11 -11q0 -11 -11 -11h-1042q-14 0 -17 22h-56
q-11 0 -11 12v112l-28 22l11 6h51v56q-34 0 -34 11v17q0 11 34 11v50q1 11 11 11h50q13 0 23 6z" />
    <glyph glyph-name="period" unicode="." horiz-adv-x="661" 
d="M317 218h129q94 0 155 -109v-7q-13 -2 -13 -13l6 -45q-12 -6 -19 -6v-26q19 0 19 -13v-6q0 -138 -154 -181h-129q-144 0 -194 129q0 69 -45 78q1 18 39 32q4 58 51 58q20 61 123 103zM7 44q13 -2 13 -13v-6q0 -13 -13 -13t-13 13v6q2 13 13 13z" />
    <glyph glyph-name="slash" unicode="/" horiz-adv-x="569" 
 />
    <glyph glyph-name="zero" unicode="0" horiz-adv-x="1445" 
d="M843 1644q244 -20 244 -53q-10 -6 -39 -6q223 -165 257 -291q53 -75 86 -244q7 -79 39 -79q53 0 53 -39v-46q0 -14 -13 -14q-27 0 -27 7l-46 -7h-66v-13l46 -6q15 0 27 6q72 -8 72 -20q13 7 20 7l13 -7q12 7 27 7q9 0 20 -20v-6q0 -10 -20 -20h-66v-132
q-28 -328 -73 -383h-125v-19q40 0 40 -27q26 0 26 -20q-106 -258 -317 -356q-100 -52 -277 -52h-6q-387 0 -534 217q-65 59 -119 205q-20 0 -66 33q-40 0 -40 13l14 6h46l46 7v-7q13 7 20 7q-60 221 -60 330q40 8 40 20v39q-7 20 -40 20v92q2 13 13 13h53q7 0 7 -6
q13 6 20 6v20q0 13 -14 13h-66l-19 14h-106q-13 0 -13 13v6q30 0 40 7l13 -7l13 7q7 0 7 -7q85 0 85 33q7 25 7 60v6h-53q-13 0 -13 14q26 125 66 250l79 152q161 204 303 204q193 53 376 53zM487 971h46q10 0 20 -19q-5 -80 -26 -80h-46q-15 0 -27 7q-66 -7 -66 -20
q40 0 40 -13q26 5 26 13q86 -8 86 -20l13 7h33q10 0 26 -26q0 -10 -19 -20h-66q-13 -2 -13 -13v-73q39 -25 39 -33v-39q-33 -20 -33 -33q0 -190 66 -310l-20 -14h-105v-6q0 -13 66 -20q0 -23 59 -26q60 -79 132 -79q87 19 125 79q-35 33 -46 33q-13 0 -13 13l13 6h66
q15 0 26 7l14 -7q69 0 99 370v118q-7 24 -7 27l13 6h79v20q0 13 -13 13h-53q-5 0 -52 14h-86q-13 0 -13 13l6 13q15 0 27 -7q56 7 92 7h20v20q0 72 -33 72q-60 0 -60 93q-56 173 -145 217q-56 20 -59 20q-167 0 -231 -330zM850 1275v-7h13v7h-13zM837 872l6 -13l-13 -6
l-6 13zM751 259l7 -13l-14 -7h-6v7q2 13 13 13z" />
    <glyph glyph-name="one" unicode="1" horiz-adv-x="841" 
d="M24 1641h730q13 -2 13 -14v-135l-7 -47q54 -7 54 -20v-7q-20 -25 -20 -47v-629q2 -14 14 -14h88q9 0 20 -20l-27 -20h-129l-13 -7l7 -13v-21l-54 -40q0 -7 6 -7q0 -7 -6 -20q0 -61 40 -61q14 -2 14 -14q0 -13 -14 -13h-149v-7q102 -7 149 -7l14 -7l-7 -47v-480l7 -47
l-27 -20q0 -7 6 -7q-6 -61 -20 -61h-345q-121 0 -121 20v48l20 27v567q-36 7 -41 7q-7 0 -20 -7q-37 7 -61 7h-54v14h162q14 0 14 13v14h-34q-13 0 -13 13v81l47 27q0 48 7 55q15 0 27 -7q69 7 108 7h7q13 0 13 13v14l-34 6h-81v555q0 13 -13 13h-250q-14 0 -14 14v81
q14 17 14 20v27q-41 0 -41 14v175q2 14 14 14zM179 722h27q14 -2 14 -14q0 -13 -14 -13h-13q-14 0 -14 13v14z" />
    <glyph glyph-name="two" unicode="2" horiz-adv-x="1416" 
d="M770 1644h106q93 0 219 -46v-14h-7q-18 0 -132 -6v-7q71 0 119 -7l13 7q129 -58 219 -212q47 -92 47 -279l13 -7h93q13 -2 13 -13q-6 -40 -20 -40h-40v-26h40v-20h-99v-13h86l13 -7q-36 -123 -239 -392q-168 -212 -185 -212q-226 0 -226 -33h-86v-13h146q13 -3 13 -14
q-52 -73 -86 -73q-47 0 -73 -46v-7h511q15 0 26 -6q12 6 27 6h99q14 -2 14 -13v-319q0 -13 -14 -13h-1320q-15 0 -27 7q-11 -7 -26 -7h-7q0 29 212 292l34 47v6h-34l-13 7q0 49 113 60q5 15 40 66h-14q-34 0 -112 7q-12 -7 -27 -7l-7 13l20 13q7 0 7 -6q64 0 100 33h33
q20 0 20 -7l33 7h86q42 0 179 199q124 144 305 405l-13 7h-146v13h159q14 0 14 13q-40 9 -40 20q0 12 60 20v46q-20 0 -47 7q-36 -7 -60 -7l-6 14v53q0 63 -100 152v7q-177 0 -205 -186l6 -33l-13 -7h-325q-37 0 -93 7q-12 -7 -27 -7l-6 14v39q0 256 245 418q0 7 20 7v13
h-106v14q66 6 100 6h86q184 60 292 60zM650 974h14v-13h-14v13zM730 974h13v-13h-13v13zM186 224l6 -13q-6 0 -46 -47q0 7 -7 7q12 30 47 53z" />
    <glyph glyph-name="three" unicode="3" horiz-adv-x="1365" 
d="M53 1641h1279v-27l-13 -20h27q-55 -140 -147 -140q-159 -206 -173 -206q-46 0 -93 -80v-7q26 0 26 -20h147q13 -2 13 -13l-13 -7h-167q-160 -188 -160 -199q185 0 334 -100q0 -20 13 -20h93q66 0 173 -214q27 -136 27 -173v-66q0 -20 -107 -20h-26v-14l33 -6v-27
q-71 -251 -220 -340q-23 -6 -26 -6v-20q2 -14 13 -14q0 7 7 7l6 -13q-134 -87 -320 -87h-13q-246 0 -426 100q-35 0 -107 20h-13v7q7 12 7 20q-174 158 -174 279q-12 0 -13 67v7q-40 0 -40 13q7 0 7 7q123 6 180 6h273q24 -28 60 -33q51 -120 153 -120q98 0 166 120
q-33 9 -33 20l13 7h7q35 0 113 6l14 74q0 173 -174 226h-366q-70 0 -213 7l-7 13q32 24 107 133q-47 7 -47 14l-13 -7l-13 7l-34 -7v13q52 0 147 147q126 157 126 166q7 0 20 -6q68 6 107 6h53v14h-66q-15 0 -27 6q-13 -6 -20 -6l-13 6q-12 -6 -27 -6q0 20 -27 20v13
q45 87 107 87l20 26v14h-353q-67 0 -200 6l-7 14q0 6 7 6l-7 34q0 10 7 93q-7 0 -7 6q60 10 60 27v73l-6 34h-47v40q2 13 13 13zM333 1135h7v-14h-7v14zM393 1135h13v-14h-13v14zM113 815h14v-13h-14v13zM187 -58h20v-13h-20v13z" />
    <glyph glyph-name="four" unicode="4" horiz-adv-x="1430" 
d="M818 1644h557q13 -2 13 -14v-691q0 -14 -13 -14h-61v-34q0 -7 -7 -7q7 -13 7 -20q27 0 27 7l47 -7h95q10 0 20 -20q0 -14 -13 -14h-88l-34 -7v-129q0 -13 -14 -13h-101l-7 -34v-88q2 -14 13 -14h136v-190q0 -13 -27 -13v-27h108q14 -2 14 -14v-95q0 -13 -14 -13h-67
q-16 0 -28 -7q-11 7 -27 7q-9 0 -20 -34q3 -21 34 -48v-61h47q14 -2 14 -13q0 -10 -20 -21h-116v-13l48 -27v-156q0 -14 -14 -14h-34q-7 0 -7 7l-13 -7h-244q-58 0 -170 7v176l-27 7q-13 -7 -20 -7v27h13q36 0 116 7v14q0 13 -14 13l-14 -7q-29 0 -33 82q-24 0 -28 61l-13 7
h-719q-37 0 -95 6q-12 -6 -27 -6l-7 13q54 90 54 95q0 14 -13 14h-88q-14 0 -14 13q56 16 75 61q112 238 162 292h82q46 0 88 122l27 27h115q14 0 14 14v13h-7q-157 7 -163 7q0 7 -6 7q18 46 40 61h68q127 225 339 631q14 42 54 81zM886 966v-34h7q14 0 14 13v21h-21z
M771 871q7 0 7 -7l13 7q12 -7 27 -7l7 14v47h-7q-40 0 -47 -54zM941 844v-7h20q15 0 27 -7q12 7 27 7v7q0 13 -13 13h-48q-13 -2 -13 -13zM256 857h13v-7q0 -9 -20 -20q-14 0 -14 14zM724 681h-82q-47 0 -102 -136h231v129l7 14l34 -7h27l47 7v135l-34 7h-13q-52 0 -82 -108
q-26 -41 -33 -41zM757 23q14 -2 14 -13v-7q0 -14 -14 -14h-6q-14 0 -14 14q0 9 20 20z" />
    <glyph glyph-name="five" unicode="5" horiz-adv-x="1374" 
d="M377 1644h320q36 0 60 -7q35 7 67 7h260q32 0 67 -7q25 7 60 7h67q9 0 20 -20v-67q33 0 33 -13v-214q0 -12 -60 -20q0 -13 -13 -13h-414l-33 -7v7l-14 -7l-13 7q-7 0 -7 -7l-33 7h-7q-22 0 -33 -7l-40 7h-27q-22 0 -33 -7l-40 7h-33l-21 -133q67 0 67 -54q-6 -11 -6 -27
l13 -6h60q13 0 13 -34h94q131 20 187 20q160 0 160 -33q222 -102 307 -307q46 -158 46 -220v-20q0 -13 -13 -13h-47q0 -34 -13 -34h-40v-20h40q13 -2 13 -13q-6 -40 -20 -40l7 -27q-15 -133 -67 -133q-11 -4 -73 -114q47 0 47 -13v-7q-163 -191 -374 -233q-52 -19 -174 -27
q-466 0 -720 247q0 33 -40 33h-7v54q0 6 7 6l-7 14q0 46 47 46v114q0 73 20 73h106q17 14 27 14q14 0 147 6l7 -13v-7l-47 -6h-60v-14q135 -134 227 -160q0 -33 200 -40q125 30 153 47q94 72 94 126q-13 7 -20 7t-20 -7l-40 7l-40 -7q-13 7 -20 7v14h113l34 -7l13 20v20
l-47 27q0 13 54 20q0 23 60 26q0 99 -127 207q-12 0 -60 33h-20q-118 0 -261 -120h-20q-7 0 -20 7l-13 -7q-46 0 -153 74q-164 92 -187 120q26 253 40 253h73q0 8 7 20l-20 14h-60q-14 0 -14 13v60q-11 7 -26 7h-27v7q0 153 33 153q47 0 47 13q0 107 20 214q-13 0 -13 13
l-13 -6q-14 0 -14 13q7 59 14 73q143 7 213 7zM43 1070h20q14 -2 14 -13v-7q-35 -7 -40 -7l-7 14q2 13 13 13zM564 1003v-46q63 27 87 60v26h-67q-20 -6 -20 -40zM190 817v-14h7v14h-7z" />
    <glyph glyph-name="six" unicode="6" horiz-adv-x="1493" 
d="M1212 1647l13 -7q-257 -351 -294 -381l-34 6h-13q-40 -4 -40 -20v-6h114q13 -3 13 -14q-74 -75 -74 -100h87q14 -2 14 -14l-14 -6h-60q-7 0 -7 6l-13 -6h-80q-14 -2 -14 -14v-6q32 0 208 -47q153 0 361 -255q88 -163 88 -261q-25 -13 -54 -13h-80v-14h73q12 0 20 -33
q0 -164 -107 -355q-137 -188 -248 -188q-13 7 -20 7q-13 -7 -20 -7v-6q7 0 20 -7q37 7 54 7l7 -14q-159 -93 -382 -93q-236 0 -422 100h-100q-14 0 -14 13q5 7 61 7q-255 221 -255 415q22 0 34 7l-7 47v20q-47 0 -47 20v20q0 49 20 54h34q47 214 133 314q0 17 141 208
q-47 9 -47 20q47 60 60 60l14 -6l27 6q6 0 6 -6l47 6h74q0 14 -13 14h-81q-13 0 -13 13q10 1 73 94l-13 7h-107q-14 0 -14 13q4 0 21 13h73q44 38 288 382h509zM281 1265l7 -13l-20 -13l-7 13q4 0 20 13zM228 1259h6v-14h-6v14zM455 495v-73q47 0 47 -81h-33q0 -87 161 -181
l80 -13q110 0 207 147q29 59 47 168q0 11 -40 47q74 6 74 20v6q-52 145 -168 195q-22 13 -40 13h-27q-179 0 -261 -234q-47 0 -47 -14zM737 515h20q13 -2 13 -13v-7h-33v20zM797 515h20q13 -2 13 -13l-13 -7h-20v20zM871 515h13l33 -6v-14h-46q-14 0 -14 14zM1011 422v-14
l20 -13v13q-13 0 -13 14h-7z" />
    <glyph glyph-name="seven" unicode="7" horiz-adv-x="1405" 
d="M34 1641h1341v-251q0 -9 20 -20h81q14 -2 14 -14q0 -13 -14 -13h-74q-69 -115 -81 -115q-55 0 -55 -14h48v-34h68q13 0 20 -40q-86 -176 -108 -176q-17 0 -68 -116q-199 -379 -210 -379h-136q-15 0 -27 -7q-12 7 -27 7l-34 -7v-13q34 0 34 -14l-13 -27q6 0 6 -7l14 7
q7 0 7 -7l13 7h7q7 0 7 -7l13 7q14 -2 14 -13l-7 -14q81 -7 81 -20q0 -14 -13 -14h-81q-248 -443 -285 -542h-427q-24 0 -61 7q-12 -7 -27 -7l-7 14l258 460q33 68 47 68h54l34 7v7q0 9 -20 20h-34l-13 -7q-9 34 -21 34h-7l-33 -7q0 7 -7 7q0 -7 -7 -7l-7 14l14 20
q-41 9 -41 21q2 13 14 13h189q46 0 88 108q202 370 224 387q24 0 115 189q-13 0 -13 14q6 0 6 7q-88 0 -88 40l-34 -7h-6v21h61q6 0 40 61l-13 7h-806q-14 0 -14 13v20q2 14 14 14h61q13 0 13 13q-22 14 -40 14h-61q-14 0 -14 14v243q2 14 14 14zM542 1228h74v-7
q0 -14 -13 -14h-61v21z" />
    <glyph glyph-name="eight" unicode="8" horiz-adv-x="1405" 
d="M768 1644q131 0 244 -59v-14h-59v-13h53q85 0 204 -191q40 -92 40 -178v-7q0 -13 -13 -13h-60v-13h159q13 -3 13 -14v-33q0 -13 -13 -13q-13 7 -20 7q-13 -7 -20 -7v-13q-5 -122 -125 -251v-13q150 -78 224 -284l-13 -7h-132q-13 -2 -13 -13h72q46 0 46 -79q11 0 27 -26
v-106q2 -13 13 -13h20l46 6l13 -19q0 -7 -125 -14q-18 -145 -178 -303l-86 -66q20 0 125 -7v-13h-79q-24 0 -59 -7q-11 7 -33 7q-145 -66 -330 -66q-204 0 -344 53v13h73v6q-89 7 -132 7q-183 101 -264 297q-17 86 -33 86h-106q-13 0 -13 13l13 7h99l33 6v7q0 31 -6 66
q6 26 6 46q-16 0 -20 27q7 57 7 66h-7q-56 6 -92 6v13h152q18 0 39 80q101 166 205 211v13q-117 114 -145 264q46 9 46 20v26q0 14 -13 14h-172v13h66q13 0 27 119q61 151 99 151l-7 14q21 47 112 99v6h-46v13h33q15 0 26 -6q180 59 185 59q73 20 238 20zM517 1169h-72v-13
h171q13 -3 13 -14v-26q0 -13 -39 -20v-7q0 -87 119 -145q25 -6 52 -6q52 0 113 85q21 86 66 86q6 12 6 27v6q0 14 -13 14h-172v13h60q13 0 13 13q-45 145 -152 145q-90 0 -138 -119q-18 -39 -27 -39zM-18 1169h7v-13h-7v13zM563 528h-151q-14 -2 -14 -13h86q10 0 20 -20
q-13 0 -13 -66q13 0 26 -132q-36 -13 -132 -13v-6l33 -7q15 0 27 7q79 0 99 -47q60 -67 138 -79q92 0 178 119h106q13 0 13 13v7h-72l-14 6q14 60 20 119q-31 0 -46 93h-26l-40 6q-13 -6 -20 -6q-13 6 -20 6v13h146q0 51 -113 113l-46 6q-96 0 -185 -119zM689 528h39v-13
h-39v13zM821 291l6 -13l-13 -7l-6 13z" />
    <glyph glyph-name="nine" unicode="9" horiz-adv-x="1587" 
d="M837 1641q177 0 368 -94q71 -3 214 -167q0 -13 67 -20q94 -161 94 -221q-10 -7 -41 -7l7 -80v-40q0 -13 -13 -13q-13 6 -20 6l-14 -6q-6 0 -6 6l-47 -6h-67v-7q2 -14 13 -14h181l27 -46h53v-14h-73l-41 -6q-13 6 -20 6l-13 -6q-13 6 -20 6q-40 -198 -234 -441l-208 -295
v-7q40 0 40 -20h41q13 -2 13 -13v-7q0 -13 -13 -13h-61q-32 -22 -167 -221q-67 -94 -74 -94h-502q-13 0 -13 14q175 229 241 301h60q10 0 20 20v13h-47q-53 19 -53 27l140 181v6h-26q-99 0 -315 108q-247 221 -247 354l-34 87h-27v14h61q21 -20 33 -20q6 0 54 6v-6l13 6h47
v14h-60q-14 0 -14 13v33h-214v14l7 13l13 -6l13 6q8 0 21 -6q36 6 60 6h20q7 0 7 -6q30 0 40 127l13 6h134q13 0 13 14q-20 6 -20 13l-13 -7q-36 7 -60 7h-7v7q29 107 87 187v14l-34 -7v13q95 121 188 161l-7 13v7q160 87 422 87zM669 1159h81q9 0 20 -20l-14 -7h-153
q-14 0 -27 -67v-46q0 -12 -60 -20q-7 0 -7 6l-34 -6h-73v-14l67 -7h134q33 -46 40 -46h20l33 6l7 -13l-13 -7h-154q-14 -2 -14 -13q72 -133 107 -141q61 -60 148 -60q140 0 220 187q0 21 14 21q128 6 174 6v14h-54l-27 46h-194v14q2 13 14 13h140l14 7l-20 114l40 13
q-36 86 -127 141q-8 0 -67 20h-47q-122 -35 -154 -87q-34 -36 -34 -54zM857 999h13v-14h-13v14zM957 932h27v-14h-27v14z" />
    <glyph glyph-name="colon" unicode=":" horiz-adv-x="557" 
 />
    <glyph glyph-name="semicolon" unicode=";" horiz-adv-x="557" 
 />
    <glyph glyph-name="semicolon" unicode="&#x37e;" horiz-adv-x="557" 
 />
    <glyph glyph-name="less" unicode="&#x3c;" 
 />
    <glyph glyph-name="equal" unicode="=" 
 />
    <glyph glyph-name="greater" unicode="&#x3e;" 
 />
    <glyph glyph-name="question" unicode="?" horiz-adv-x="1339" 
d="M771 1644h12q198 0 258 -52q-9 -6 -38 -6v-13q84 -30 187 -155q97 -135 97 -238q6 0 6 -20v-13l-6 -13l-46 7h-109v-39h97l12 -6l-6 -13v-32h45l39 -33v-19q-26 -132 -71 -181q-52 -77 -116 -77q-30 -27 -181 -103q-71 -43 -71 -142v-7q2 -13 13 -13h58q13 -2 13 -12
q0 -15 -45 -26q-7 -12 -7 -26l7 -45l-19 -13h-317l-38 6l-13 -6q-10 6 -39 6v71q0 13 52 20v25h-71q-13 0 -13 13q0 212 84 265q14 0 90 64q171 76 232 129q39 52 39 78q-32 0 -32 26h-39l-13 6l7 32q0 13 -13 13h-84q-13 0 -13 13v6q2 13 13 13q117 7 148 7l7 13
q-41 77 -52 77q-27 48 -123 84h-51q-75 -6 -142 -77l-65 -97q-32 0 -45 -45h-13l7 -45h39q9 0 19 -20l-13 -6h-316q-7 0 -7 6l-12 -6q-7 0 -7 6l-13 -6h-6q-7 0 -7 6l-13 -6h-6q-13 0 -13 26h-45q-13 0 -13 12v26l32 45q31 0 45 97q10 79 97 207q127 124 219 154h39
q202 46 232 46q47 6 117 6zM648 218h129q94 0 155 -109v-7q-13 -2 -13 -13l6 -45q-12 -6 -19 -6v-26q19 0 19 -13v-6q0 -138 -154 -181h-129q-144 0 -194 129q0 69 -45 77q1 19 39 33q4 58 51 58q20 61 123 103zM338 44q13 -2 13 -13v-6q0 -13 -13 -13t-13 13v6q2 13 13 13z
" />
    <glyph glyph-name="at" unicode="@" horiz-adv-x="2758" 
d="M88 1417h139q156 0 231 -115q29 0 37 -27q14 -31 14 -65q6 7 23 75q28 57 58 57q14 0 14 7q-24 0 -24 10q24 27 75 38q42 20 108 20h7q47 0 95 -20v-4l-4 -7q60 -37 75 -37h17v-7h-20q54 -71 54 -112v-3h-41v-3q20 0 24 -4q6 4 14 4q6 0 6 -21q17 0 17 7q0 37 27 88
q-5 4 -20 4q8 37 61 71h4v3h-34v4q36 36 122 37h10q75 0 142 -37q60 0 85 -44q27 -22 27 -41q-71 -44 -88 -44h-13q-57 71 -109 71q-10 0 -58 -17v-3q14 0 14 -7q-43 -41 -51 -88q-37 -4 -37 -11q40 0 40 -23q0 -34 31 -82h-17q0 -18 78 -37q102 22 102 41q-14 0 -14 3
q4 11 21 27h13q65 -30 82 -30q27 -7 27 -14v-3q0 -4 -27 -14q-11 -27 -44 -27q-7 -1 -7 -7q20 0 20 -7q-76 -64 -149 -64h-34q-97 0 -173 71h-24v7h17v3q-27 36 -27 45h-3q0 -11 -7 -11h-31q-7 -6 -27 -6v-4h14v-7q-68 -98 -194 -98q-131 0 -210 105h-3v4q0 6 33 6
q-27 55 -27 92l7 3h58v7h-61l-14 10h-24v7h11v3q0 4 -14 11l-7 -4h-20q0 -10 -7 -10h-17v-13h17q7 0 7 -11q0 -35 -31 -98h31v-7h-34q-27 -30 -31 -30h-37l-17 -4v-7h44v-6q-77 -58 -142 -58h-180q-7 0 -7 7v57h-41q-6 0 -6 7v4h47v23q0 7 34 7v4q-34 2 -34 10v95l-24 13
q26 16 51 21v91q-27 4 -27 10v102q1 7 7 7zM1438 1417h339q7 0 14 -34v-47q0 -7 -7 -7h-105v-58q-10 -17 -37 -17l24 -13q0 -14 3 -28q-6 -3 -14 -3v-98q0 -7 -10 -7v-4q27 0 27 -10v-125q0 -7 -6 -7h-109q-10 0 -10 54v82q-17 2 -17 10v102q0 6 20 6v7q-10 0 -10 7v20h-17
v7q12 0 27 10h4v58q0 7 -7 7h-102q-7 0 -7 7v57l-7 10v7q1 7 7 7zM2012 1417h6q48 0 95 -20v-4l-3 -7q59 -37 75 -37h17v-7h-21q54 -71 54 -112v-3h-40v-3q19 0 23 -4q6 4 14 4q7 0 10 -38h21v44q0 7 13 7v10h-17q-3 0 -17 17l10 14v108q0 7 11 7v17q1 7 6 7h187
q95 0 95 -27q58 -41 58 -112q-4 -35 -4 -41h7v-3q0 -44 -78 -85h-7l17 -27v-7q-7 0 -7 -7h-37v-7h41q41 -28 41 -33q-7 -1 -7 -7l51 -75q-7 -1 -7 -7q10 -3 10 -20h-129q-12 6 -17 20l7 4l-48 78q7 0 7 7q0 12 -47 33h-24v-91h20v-7h-20v-37q0 -7 -7 -7h-112q-7 0 -7 7v30
q1 7 7 7h17v7h-17q-7 0 -7 7v68h-3q0 -11 -7 -11h-30q-7 -6 -27 -6v-4h13v-7q-68 -98 -193 -98q-132 0 -211 105h-3v4q0 6 34 6q-27 55 -27 92l7 3h57v7h-61l-13 10h-24v7h10v3q0 7 -14 7q28 139 79 139q13 0 13 7q-24 0 -24 10q24 27 75 38q43 20 109 20zM2378 1329v-51
q0 -10 -14 -10v-10q14 0 14 -11h24v-3q0 -7 -14 -7v-17h58q24 0 57 27q-15 0 -20 4l4 7v27q0 28 -45 44h-64zM203 1319v-17h21q6 -1 6 -7v-85q-30 -17 -47 -17v-13h17l7 -4l-4 -24v-40l4 -21q-4 -6 -4 -10q4 -6 4 -10h30v-7h-30q0 -7 -4 -13l7 -4h24l78 17h24v4l-17 3h-11v7
q51 36 51 102h-17q-6 0 -6 6l30 17h20v4q-21 95 -74 95q-48 23 -75 23h-27q-7 -1 -7 -6zM634 1207q5 0 10 -11q-6 -3 -10 -3v-7h24l13 -10h58v-7q-3 0 -3 4l-7 -4h-51q0 -47 58 -88v-7h-21q-4 0 -10 -10q23 0 58 -7q11 0 61 17q56 0 78 51q9 0 14 51v10h-28q-10 0 -10 34
h-57v7h54q-39 92 -109 92q-81 0 -118 -95zM1883 1207q5 0 10 -11q-7 -3 -10 -3v-7h23l14 -10h58v-7q-4 0 -4 4l-7 -4h-50q0 -47 57 -88v-7h-20q-5 0 -10 -10q23 0 57 -7q12 0 61 17q56 0 78 51q10 0 14 51v10h-27q-10 0 -10 34h-58v7h54q-38 92 -108 92q-82 0 -119 -95z
M74 1302q7 -1 7 -7q0 -7 -7 -7q-6 0 -6 7q1 7 6 7zM1499 1254h7v-7h-7v7zM319 1203h10q7 -1 7 -7l-7 -3h-10q-7 0 -7 7zM990 1193q1 -7 7 -7h7v7h-14zM44 1193q7 -1 7 -7t-7 -6t-7 6q1 7 7 7zM1062 1186v-3h6v3h-6zM522 1176h17v-7h-17v7zM1771 1176h17v-7h-17v7zM719 1142
h10v-3q0 -7 -7 -7l-3 7v3zM1967 1142h11v-3q0 -7 -7 -7l-4 7v3zM2378 1115v-7h27q3 0 10 10q-7 11 -7 17h-13l-14 -20h-3zM532 1125h4q7 -1 7 -7l-7 -3h-4q-6 0 -6 7zM1781 1125h3q7 -1 7 -7l-7 -3h-3q-7 0 -7 7zM1014 1118q0 -5 -7 -27h21q-10 19 -10 27h-4zM2334 1108v-7
h34v7h-34zM1238 1095h10q7 -1 7 -7q-20 -17 -34 -17h-7v7q6 0 24 17zM420 867q51 0 120 -28v-8h-12q43 -28 92 -88q20 -1 20 -12q-43 -35 -120 -64h-8q-4 0 -52 56l4 8q-18 12 -76 20h-16q-42 0 -112 -60h-12v-8h60v-8h-52q-20 -54 -20 -80q4 -48 12 -64l-8 -4h-44
q44 -76 84 -76h28q75 -12 80 -12q72 12 100 40q32 37 32 48h-148q-8 0 -8 8v48q8 10 8 16l-4 20h184q34 0 108 4l12 -20v-4q-16 -17 -16 -64v-4h8v-4q0 -56 -52 -84q-81 -116 -216 -116h-28q-141 0 -236 124h-48q-32 44 -32 68q1 8 8 8h44q-8 41 -8 72q0 68 20 76h44v8h-52
v8q8 0 44 72q58 72 116 72q49 32 152 32zM688 867h132q5 0 20 -32v-36q0 -6 -16 -16h-20v-12q24 0 24 -8v-204q12 0 12 -8v-112q1 -8 8 -8h168q8 -1 8 -8v-60q0 -8 -8 -8h-4q-4 0 -4 4q-8 -4 -12 -4v-4q28 0 28 -8v-8q0 -8 -8 -8h-312q-5 0 -16 28q8 0 8 8v184l-16 16v208
h-16v8q8 0 32 12v44l-16 16v8q1 8 8 8zM1060 867h132q8 0 8 -24h16q0 24 8 24h400q8 0 16 -40v-60q45 48 60 48v4h-40v4q43 43 144 44h12q89 0 168 -44q70 0 100 -52q32 -25 32 -48q-84 -52 -104 -52h-16q-67 84 -128 84q-12 0 -68 -20v-4q16 0 16 -8q-50 -48 -60 -104
q-44 -4 -44 -12q48 0 48 -28q0 -40 36 -96h-20q0 -21 92 -44q120 25 120 48q-16 0 -16 4q4 13 24 32h16q76 -36 96 -36q32 -8 32 -16v-4q0 -5 -32 -16q-13 -32 -52 -32q-8 -1 -8 -8q24 0 24 -8q-90 -76 -176 -76h-40q-114 0 -204 84h-28v8h20v4q-26 35 -36 56q4 4 32 4
q-19 47 -32 108l4 8v4h-32q-8 0 -8 8q44 5 44 12q0 44 32 104q-6 4 -24 4q0 13 12 28v4h-128v-68q-11 -20 -44 -20l28 -16q0 -16 4 -32q-7 -4 -16 -4v-116q0 -8 -12 -8v-4q32 0 32 -12v-148q0 -8 -8 -8h-128q-12 0 -12 64v96q-20 3 -20 12v120q0 8 24 8v8q-12 0 -12 8v24
h-20v8q14 0 32 12h4v68q0 8 -8 8h-120q-8 0 -8 8v64h-24v-240h20q8 -1 8 -8q0 -8 -8 -8h-52v-16h40q8 -1 8 -8v-140q0 -8 -16 -8v-64q16 0 16 -8t-8 -8h-132q-19 24 -24 24l4 8v40l-20 20q1 8 8 8h4q8 0 8 -20h12v156h-40q-8 0 -8 8q1 8 8 8h52v8l-28 16v228q0 4 -4 4
q4 32 12 32zM2160 867h132q8 -1 8 -8v-140q0 -8 -8 -8h-20v-8q1 -8 8 -8h20v-4l-4 -8q16 -5 16 -36h192v24q-16 12 -16 24h-56q-8 0 -8 8l8 4h56v152q1 8 8 8h128q8 -1 8 -8v-148h-20l-24 -4q-7 4 -20 4v-16h64q0 -15 16 -24v-136h20q8 -1 8 -8v-4q0 -8 -8 -8h-20v-40
q0 -8 -16 -8v-140h-136q-8 0 -8 8v128q0 8 16 8v36l24 16v4q0 5 -32 16h-184v-72h32q8 -1 8 -8q0 -8 -8 -8h-52q-8 -1 -8 -8v-112q0 -8 -8 -8h-128q-8 0 -8 8v112q1 8 8 8h48q8 0 8 8v8h-32q-8 0 -8 8v192q-12 13 -12 24h-20q-8 0 -8 8q28 5 28 12v108q0 4 4 4l-4 8v24
q1 8 8 8zM1068 843v-8h8v8h-8zM80 691h4v-8h-4v8zM1296 675h8v-8h-8v8zM336 623h8q8 -1 8 -8v-4h-16q-8 0 -8 8zM308 619h8v-8h-8v8zM1680 595v-4h8v4h-8zM2468 535h12q8 -1 8 -8q0 -8 -8 -8h-12q-8 0 -8 8q1 8 8 8zM1888 487h12q8 -1 8 -8q-23 -20 -40 -20h-8v8q7 0 28 20z
M94 280h55q4 0 17 -38q3 0 3 -3l-3 -14q13 -50 20 -61l-7 -10h7l14 10q0 3 -4 3q14 69 28 69v3q0 7 -7 7q9 34 17 34h51q5 0 17 -38h4v-6q0 -4 -4 -4q17 -60 24 -68l-7 -10h4q14 0 24 61q17 65 24 65h54l7 -3q-14 -54 -31 -110q4 0 4 -3q-15 -10 -28 -10v-4q16 -7 24 -7v-3
q0 -2 -7 -10q0 -2 4 -14q-17 -64 -31 -75h-61q-6 0 -24 79l-11 23l-20 4v7q9 0 17 7l-3 6q3 19 3 28l-7 3q-3 -25 -7 -31q4 0 4 -3q-13 -10 -27 -10v-4q15 -7 23 -7v-6h-6q0 -12 3 -17q-17 -79 -24 -79h-65q-6 0 -27 82q-5 0 -10 20l-21 4v7l17 7q-10 12 -24 71q7 0 7 7
q-12 0 -17 38zM545 280q36 0 75 -34q37 -26 37 -85q7 3 11 3q0 7 -7 7q12 68 44 68v3h-7v7q0 18 96 31q40 0 92 -48q21 -37 21 -54v-14h3q20 3 20 10v38q0 7 -13 7v54q1 7 7 7h58q89 0 129 -61q28 -9 28 -48h3q10 40 10 48q-6 0 -6 6q22 28 30 28v3h-10v4q16 20 61 20
q28 0 86 -20q19 0 48 -38v-7q0 -9 -48 -24q-38 38 -58 38q-26 -7 -28 -7l4 -7q-21 -21 -27 -48h-17v-3q22 0 27 -41q3 0 3 -14h-3v-3q30 -14 37 -14q52 8 52 17q-4 7 -4 11q11 10 17 10q34 -17 58 -24q0 7 14 7q-7 22 -7 30l7 4l-3 17q0 8 3 14q0 6 -21 23q2 7 7 7l-3 17v48
q1 7 7 7h51q7 -1 7 -7v-54q0 -4 3 -4l-7 -17q17 -4 17 -10v-31q0 -15 -6 -27q5 0 10 -10v-4q0 -7 -10 -7q13 -20 34 -20q8 0 51 31v71q-11 0 -17 4l3 24v54q1 7 7 7h536q7 -1 7 -7v-27h7q1 29 13 34h86q82 -5 82 -58q3 0 3 -14v-24q-12 -44 -41 -44q7 -11 7 -20h-20v-4
q29 0 41 -17q0 -3 -4 -3q27 -43 27 -52l-6 -3h-58q-5 0 -11 10l4 7q-20 18 -28 48q-5 0 -17 10l4 7v3q0 7 -7 7h-3q0 -10 -7 -10q0 -3 3 -3l-3 -18v-30q0 -4 3 -4q-3 -27 -10 -27h-51q-7 0 -7 7v10q0 7 10 7v3q-5 0 -14 7h-3v-27q0 -7 -7 -7h-143q-7 0 -7 7v20h-10v7h24v4
h-11l4 17q-6 0 -10 34l3 7v24l-7 10l7 3q1 -7 7 -7h13v55q-10 0 -10 10h-51v-27q0 -10 -17 -10v-4q10 0 14 -17q-7 -3 -11 -3v-55q11 0 11 -7v-61q0 -7 -7 -7h-51q-7 0 -7 7v65h-14l3 17v37q0 7 11 7q-7 14 -7 21q5 0 10 10v27h-99v-27q0 -10 -17 -10v-4q10 0 14 -17
q-7 -1 -7 -7v-44l-4 -7q11 0 11 -7v-61q0 -7 -7 -7h-51q-7 0 -7 7v65h-10l3 17v37q1 7 7 7l-7 21q5 0 10 10v27h-58v-13q0 -4 4 -4l-11 -17q21 -4 21 -10v-72q-16 -9 -31 -41q-29 -34 -75 -34q-89 0 -113 61q-5 0 -30 -20h-11v-3h7v-4q-31 -34 -82 -34h-3q-76 0 -113 61v11
h10q-10 44 -17 44q-5 4 -17 4h-7v-4q14 0 14 -7q-12 -61 -27 -61q0 -10 -34 -10v-4h20v-7q-42 -27 -78 -27h-82q-7 0 -7 7v27h-24v7h24q0 14 10 14v3q-10 0 -10 10h-4q0 -11 -27 -13q-29 -55 -96 -55q-77 0 -112 58v3h13q-10 31 -10 41q0 7 31 7v4q-34 0 -34 -4
q-6 -51 -31 -51q-4 0 -41 -38q-28 -20 -68 -20q-73 0 -109 58v3q13 0 13 4q-7 11 -13 41q0 3 34 3v4q-27 0 -48 3v4l3 6q-7 0 -7 7q14 65 41 65h4v3h-7v7q34 31 96 31zM2361 280h140q7 -1 7 -7v-27q14 0 14 -7l-11 -7h-85v-3l14 -14v-31h75v-20h-17v-21q0 -6 -7 -6h-62
l-17 -4q5 -4 10 -41l7 -3h72q2 0 10 -7q-3 -41 -10 -41h-140q-7 0 -7 7v20h-10q0 -27 -27 -27h-11q-27 0 -27 34q21 21 34 21h7q24 0 24 -21h24v4q-14 0 -14 6q7 0 7 7q-6 8 -10 38l3 7v24l-7 10l17 -4h11v55q-14 0 -14 7v3l7 10q-14 0 -14 7v24q1 7 7 7zM2597 280h6
q76 -13 76 -34q-26 -34 -45 -34q-21 20 -34 20q-14 -5 -14 -10v-14q13 0 38 -20q65 -24 65 -38q-7 -1 -7 -7q17 -1 17 -10v-3l-14 -41q0 -9 -6 -17h10v-4q-14 -27 -72 -27q-35 0 -78 31q-19 0 -24 17v3q2 8 54 31q15 -31 34 -31h11q5 0 13 14v3l-3 17q3 0 3 4q-92 24 -92 68
q4 0 4 3q-17 8 -17 18q16 61 75 61zM91 242v-6h-7q1 6 7 6zM1982 232v-10q10 0 10 -7v-31h72q7 -1 7 -6v-7q0 -7 -21 -7v-21q0 -6 -6 -6h-55l-24 -4v-3q14 0 14 -41h78q7 0 7 -10h7v34l-4 7q7 3 11 3v51l3 17q-8 0 -14 4l4 24v13h-89zM2136 232v-24l-7 -10q17 -8 17 -10
q-3 -7 -3 -10h37q17 9 17 13q-6 0 -10 31q-13 10 -24 10h-27zM982 229v-10q13 0 13 -7v-38q0 -7 -27 -13v-4q14 0 14 -7v-48q0 -3 3 -3l-3 -7v-3h20q24 7 41 7v3h-7v3q24 32 24 52h-10v10l24 3q0 47 -68 62h-24zM476 174v-13q13 0 21 -7l-4 -7q0 -17 28 -45q-7 -3 -11 -3v-3
l31 -4q0 7 48 14q24 23 24 48v3q-17 0 -17 17h-27v7h23v3q-22 41 -51 41h-7q-58 -12 -58 -51zM726 171q0 -7 20 -17l-3 -7q0 -17 27 -45q-7 -3 -10 -3v-3q12 0 30 -4q0 7 48 14q25 23 28 51q-21 0 -21 17h-27v7h24v3q-20 41 -52 41h-6q-58 -12 -58 -54zM1040 167h7v-6h-7v6z
M166 154v-4h10v4h-10zM306 154v-4h6v4h-6zM176 147v-4h10v4h-10zM319 147v-4h7v4h-7zM193 137v-7q1 -7 7 -7q0 13 7 20h-7q-7 -1 -7 -6zM333 133q3 -6 3 -10h4q0 9 7 20h-7q-7 0 -7 -10zM422 130h3v-7h-3v7zM2115 120v-4h14v4h-14zM1265 113h3v-4q0 -5 -10 -10h-7v7
q6 0 14 7zM2030 75v-3h14v3h-14zM2477 75v-3h10v3h-10z" />
    <glyph glyph-name="A" unicode="A" horiz-adv-x="1351" 
d="M519 1643h399q12 -2 109 -284l20 -13h68q18 -14 162 -434l48 -135l-14 -7h-156v-7q0 -36 41 -40l41 6h6q29 -15 190 -514l-14 -7q-23 7 -27 7q-6 0 -6 -7l-48 7h-34q-13 -2 -13 -14q36 -108 47 -108h136q13 -2 13 -14v-6q0 -14 -13 -14h-149q-16 0 -27 7q-12 -7 -28 -7
h-142l-47 7l-7 -14q2 -13 14 -13h406q20 0 88 -224v-7h-508q-11 0 -81 231h-359q-15 0 -27 6q-12 -6 -27 -6q-14 0 -14 13q7 0 7 7q125 7 183 7h217q13 0 13 13l-20 14h-136q-8 0 -40 61h-54v-7q0 -6 6 -54h-61q-7 0 -47 61h-393q-39 0 -47 -54l13 -7h115q14 -2 14 -14v-6
l-88 -265h-515v7l95 271l-203 7q-14 0 -14 13q34 109 48 109h183q49 0 67 115q12 1 68 169l75 217v7h-68q-14 63 -5 44q-9 10 181 10q10 2 108 277l95 278v7h-34v7q51 173 109 291zM736 1054q-73 -284 -102 -284h-156q-13 0 -20 -41h41q40 -4 40 -20q-68 -209 -68 -217
l34 -6l48 6q13 -6 20 -6l41 6q6 0 6 -6l34 6h115q7 0 7 -6q68 6 68 20v7q-25 45 -61 176q0 35 -61 40q0 17 -14 34q3 14 14 14h115q-34 124 -88 277h-13z" />
    <glyph glyph-name="B" unicode="B" horiz-adv-x="1584" 
d="M297 1644h603q374 0 528 -264q-18 -5 -82 -13q30 -62 54 -176h68q14 0 14 -20h81q13 -3 13 -14v-27q0 -14 -13 -14q-7 0 -7 7q-7 0 -7 -7l-33 7h-28q0 -251 -209 -379v-13q270 -119 270 -420v-54h7q9 0 68 7l7 -14q-5 -88 -27 -88h-28q-15 0 -27 7q-23 0 -61 -122
l-54 -54l-47 7h-20q-185 -190 -379 -190h-995q-14 0 -14 14v162q2 14 14 14h67q14 0 14 13v14q0 20 -7 20l7 34v399q0 14 -14 14h-40q-58 0 -183 7l-7 13v7l7 13q125 7 183 7h47l7 34v501l-7 40q7 12 7 34v21q0 8 -48 33v156q0 9 41 20q7 14 7 21q0 21 -7 128q7 102 14 109
q145 6 216 6zM-82 1367h14v-169h-14v169zM-34 1367h13v-169h-13v169zM595 1279h-122v-75q2 -13 14 -13h61q3 0 20 -14l-7 -47v-223q2 -14 14 -14h270q149 60 149 176v54h82v7q0 29 -28 41l-13 -7q-7 0 -7 7l-13 -7h-34q-24 27 -48 27h-54q-81 88 -128 88h-136q-6 0 -6 7z
M568 555v-21h74q101 0 271 7q-4 20 -54 20h-108q-58 0 -183 -6zM324 534q0 -13 -6 -13q6 -13 6 -20h224v20l-48 13h-176zM1055 534v-27l7 -13l47 7h176q14 0 14 13v7q0 13 -14 13h-230zM-217 534q13 -2 13 -13v-7q0 -13 -13 -13q-14 0 -14 13v7q2 13 14 13zM609 494h-41
l-7 -48q0 -20 7 -20l-7 -34v-34q0 -58 7 -121q-7 -26 -7 -61l14 -7h413q55 0 121 81q-81 7 -81 20q23 0 34 129q-54 95 -61 95q-50 0 -332 7l-47 -7v7z" />
    <glyph glyph-name="C" unicode="C" horiz-adv-x="1784" 
d="M690 1644q7 0 7 -7l26 7q318 0 543 -152q238 0 238 -53q149 -120 231 -258v-40l-245 -125q-68 -40 -99 -40h-66q-149 208 -271 238q-40 19 -126 46q-117 0 -271 -79v-7q73 0 73 -13q-179 -161 -179 -251q-21 -25 -39 -132h-133q-13 -2 -13 -14q0 -9 20 -19h112
q10 0 33 -166q34 -134 139 -238l-13 -6h-73v-14q88 -86 291 -132q75 0 219 60q133 0 205 86h6v13h-66v6q25 45 86 119h79q14 0 232 -119q139 0 192 -59v-7q-27 -29 -27 -33l-46 7q-43 0 -119 -132q-29 -14 -106 -14h-13q-10 0 -20 -19h86v-20q-211 -196 -357 -219
q-105 -52 -238 -52h-139q-361 0 -642 257q-28 34 -99 34q-23 -7 -26 -7q-27 10 -27 20q2 13 14 13q7 0 19 -7l40 7h13v7q-119 163 -119 198v7h66l33 6q-77 176 -86 357h-85v20h72q13 0 13 13q0 14 -13 14h-119q-13 0 -13 13v20q30 0 40 6l13 -6q99 0 99 26q13 187 106 351v6
q0 13 -13 13h-66l-14 7q119 210 271 291q0 13 -13 13h-132v7q77 69 278 126q107 19 192 19h13q15 0 26 7zM260 718v-20h20q13 0 13 14l-13 6h-20zM961 348h60q13 -2 13 -13q-83 -73 -119 -73h-53v13q25 0 99 73z" />
    <glyph glyph-name="D" unicode="D" horiz-adv-x="1767" 
d="M254 1644h386q413 0 645 -190q170 -139 251 -278h95q122 -208 122 -359v-14q0 -3 -14 -20l-34 6h-54v-33q0 -14 -14 -14h-74v-54h74q14 -2 14 -14v-13q0 -148 -115 -387q-14 -2 -14 -14v-6h129q13 -2 13 -14q-22 -13 -40 -13h-116l-101 -123h-129q-102 0 -102 -33v-7h176
q14 -2 14 -14q-11 0 -81 -61q-256 -183 -495 -183h-747v244q0 14 -13 14h-14q-176 0 -176 20v7q2 13 14 13h176q13 0 13 14v109q45 0 136 6v14q-92 7 -129 7l-7 13v400q0 10 -20 21h-61q-13 0 -13 13v27q0 16 54 21l13 -7l48 41q88 0 88 20v359q0 16 -109 28v434l7 13
q136 7 204 7zM532 1264v-74q2 -14 13 -14h82q13 -2 13 -14v-359q0 -5 -20 -20l-34 6h-41l-27 -47h-61q-13 -2 -13 -14v-40h74q6 0 21 -21l-7 -34v-264q0 -15 7 -27q-7 -12 -7 -27v-27l7 -34h81q15 0 27 -7q12 7 27 7l7 -14l-27 -13q-14 0 -14 6l-47 -6h-54l-7 -34v-14
q2 -14 13 -14h143q66 0 217 62q102 6 149 6l7 14q-68 7 -102 7h-13v13q125 91 183 265l34 142l-21 14h-61q-13 0 -13 13v27q0 10 20 21q7 0 7 -7q63 0 81 41h41l47 6v14q-25 200 -196 366q-149 12 -184 48q-109 61 -183 61h-156q-13 -2 -13 -14zM10 1176h13q14 -2 14 -14
v-13q0 -12 -34 -20l-7 13v20q2 14 14 14zM973 783h74q14 -2 14 -14v-7q0 -13 -14 -13h-61q-13 0 -13 13v21zM-113 749h14q14 -2 14 -14v-34q0 -13 -14 -13h-27v47q2 14 13 14z" />
    <glyph glyph-name="E" unicode="E" horiz-adv-x="1248" 
d="M228 1644h962q9 0 20 -20v-231q0 -9 20 -20h27q16 0 28 7q33 -9 33 -20v-14q0 -13 -13 -13h-34v-34q0 -14 -14 -14h-467q-71 0 -216 -7v-61q2 -13 13 -13h61q14 -2 14 -14v-291h589q13 -2 13 -13v-102q0 -13 -74 -20l-14 7l-40 -7q-14 7 -21 7l-7 -34v-115l7 -68l-20 -14
h-576q0 -23 -47 -27l-41 7h-13q-14 -2 -14 -14v-6h41l68 -7v-224q0 -36 40 -40q0 -15 7 -27q-7 -12 -7 -27v-7h644q13 0 20 -68h101q14 -2 14 -13q0 -14 -14 -14h-74l-34 -7v-257h-1110q-7 0 -7 7l-14 -7h-40q-10 0 -21 20v14q0 7 7 7l-7 13v163l-34 6h-60q-14 0 -14 14v14
q2 13 14 13q113 7 176 7h27v13l-68 7h-27q-14 0 -14 20l7 14q-7 12 -7 27q0 9 41 20q7 12 7 28q0 29 -48 33v231l7 13l-13 7h-88q-14 0 -14 13q2 14 14 14h81q13 0 13 14v223q0 14 21 14t128 6v413q0 21 -74 21h-14v108l48 27v14q0 13 -14 13h-81q-14 0 -14 14v237l7 13
q136 7 203 7zM-29 831h34q13 -2 13 -13v-34q0 -13 -13 -13h-34q-14 0 -14 13v34q3 13 14 13zM215 80h61v13h-48q-13 -2 -13 -13zM946 73v-27q2 -14 14 -14h94q0 8 7 21q-7 13 -7 20h-108z" />
    <glyph glyph-name="F" unicode="F" horiz-adv-x="1160" 
d="M267 1641h958q14 -2 14 -14v-333l-14 -20l-47 7q-589 -7 -639 -7v-34q0 -14 -14 -14h-122q-14 -2 -14 -13v-41q2 -14 14 -14h7q20 0 20 7q75 -7 88 -20h150q14 -2 14 -14v-7q-62 -6 -116 -6h-61v-211q2 -14 13 -14h701q13 -2 13 -13v-326q0 -10 -20 -21h-564
q-10 0 -21 -20v-224l7 -34h68q14 -3 14 -14v-82q0 -13 -14 -13h-68q0 -7 -7 -21v-149l7 -34h197q14 -2 14 -14v-6q0 -14 -21 -14q-53 0 -190 -7q0 -7 -7 -7l7 -47v-34q0 -14 -14 -14h-469q-13 0 -13 14v81q2 14 13 14h157q35 7 41 7v20l-177 7h-21q-13 0 -13 13v184
q2 14 13 14h68v88q0 14 -81 20v626q-14 0 -14 6q-7 0 -7 -6l-47 6h-48q-13 0 -13 14v197q2 14 13 14q124 6 163 6q0 14 -20 14q-97 0 -197 20h-68v55q2 13 14 13h40q7 0 7 -6q12 5 82 13v388l7 13q146 7 217 7zM43 248l7 -14v-68q0 -13 -14 -13l-7 13v68q2 14 14 14zM90 248
h14q13 -2 13 -14v-27q0 -7 -6 -7l6 -13v-21q0 -13 -13 -13h-14q-13 0 -13 13v68q2 14 13 14z" />
    <glyph glyph-name="G" unicode="G" horiz-adv-x="2009" 
d="M1124 1639q234 0 433 -112v-6q-35 0 -59 -7v-6q148 -70 308 -289q64 0 79 -39q0 -9 -39 -20q0 -30 -217 -125q-98 -65 -138 -65h-52l-125 150q-48 25 -52 40v6h26v14q-9 0 -85 39h-27q-61 0 -98 26h-105q-15 0 -26 -6l-13 6q-227 -71 -296 -184q-16 -19 -85 -26v-6
q2 -14 13 -14q13 0 13 7l66 -7h118v-6q0 -13 -13 -13h-158q-39 -26 -78 -223v-53q0 -80 39 -210l-13 -6h-66l-39 -7q-13 7 -20 7l-13 -7q-13 7 -20 7v-7q44 -125 177 -210q65 -46 92 -46h164q154 -46 224 -46q136 46 170 46q13 -7 20 -7q149 100 157 125q38 27 105 138v7
h-525q-13 0 -13 13v183q33 20 33 33l-6 13q6 12 6 27q-33 8 -33 19q13 17 13 20q14 0 14 -7q77 7 111 7h683q14 0 26 -7q11 7 26 7h118l40 -46v-39q-33 -18 -40 -86q-6 -96 -6 -131q33 0 33 -13v-7q-75 -256 -132 -256q-11 7 -26 7q-154 -278 -551 -407q-111 -20 -164 -20
h-125q-504 0 -794 427h-177q-33 18 -112 223v40h177l-26 210v32q29 250 52 250q127 6 165 6v13h-7q-69 0 -210 7q0 10 66 26q127 319 393 466q104 0 178 46q176 79 446 79zM-12 1042h20v-20q-23 -7 -26 -7l-7 14q2 13 13 13zM855 812q65 -5 65 -20q0 -13 -13 -13h-59
q-13 0 -13 13q0 10 20 20zM769 805h14q13 -2 13 -13v-13h-27q-13 0 -13 13q2 13 13 13z" />
    <glyph glyph-name="H" unicode="H" horiz-adv-x="1801" 
d="M175 1641l47 -7h276q15 0 26 7q41 -9 41 -20v-504q0 -14 -14 -14h-67q-13 -2 -13 -13v-7q0 -13 53 -20q12 7 27 7q14 -17 14 -27l-7 -14q0 -15 40 -27q0 -94 27 -94q54 0 54 -6l34 6h544q7 24 7 27q0 7 -7 20l7 34q-7 13 -7 20h-34q-13 0 -13 14v40h-208q-14 0 -14 13v21
q124 6 182 6h27q13 0 13 14v504q2 13 13 13h471v-490l7 -34l-14 -7h-101l-40 -6q-11 6 -33 6h-27q-14 -2 -14 -13v-7q2 -13 14 -13q124 -7 208 -7q0 -7 7 -7l-7 -33q0 -14 54 -21v-470l6 -13l14 6h27q40 -4 40 -20v-34q0 -9 -20 -20q-24 7 -27 7l-40 -7v-148q0 -16 -54 -26
v-404l7 -47l-20 -13h-283q-57 0 -181 6l-7 14v444q2 13 13 13h34l7 47q0 15 -7 27q9 82 14 94l13 -7h40q10 0 20 20v34q0 14 -80 20l-14 27l-13 -7h-148q-24 0 -60 7q-12 -7 -27 -7l-14 7q-12 -7 -27 -7q-6 0 -6 7l-14 -7h-188l-40 7q-11 -7 -34 -7h-60q-14 -2 -14 -13v-229
q2 -13 14 -13h40q15 0 27 7q54 -7 54 -20v-7q0 -14 -14 -14h-175l-33 -6v-424q0 -13 -14 -13h-289q-57 0 -181 6l-7 14v87q0 7 7 7l-7 13v303q2 13 13 13h7q20 0 20 -6l34 6h114l34 7v14q0 13 -14 13h-107q-14 0 -14 13v693l-40 27q0 40 -13 40h-68q-13 0 -13 13v7
q2 14 13 14h61q10 0 20 20v369q0 16 7 27q-7 12 -7 27v81q2 13 14 13h60q27 0 27 7zM1123 519h60q14 -3 14 -14v-34q0 -13 -14 -13q-74 0 -74 20h7l-7 14v13q2 14 14 14z" />
    <glyph glyph-name="I" unicode="I" horiz-adv-x="657" 
d="M55 1641h467q14 0 21 -74h74q14 -3 14 -14l-21 -14q-23 7 -27 7q-12 -7 -27 -7v7q-13 -7 -20 -7v-799q0 -16 54 -20q12 7 27 7q0 -3 14 -20v-21q0 -9 -21 -20h-40q-21 0 -21 7l-33 -7h-68q-14 -2 -14 -14v-27q2 -13 14 -13h142v-474q0 -15 7 -27q-11 -34 -41 -34
q0 7 -7 7l-6 -14v-196q2 -14 13 -14q12 7 27 7q14 -25 14 -54l-14 -7h-298q-57 0 -182 7v40l-48 27q0 7 -7 7l7 48v40q0 16 -7 27q7 12 7 27v34q0 13 -61 34q-7 13 -7 20q11 28 21 28h27q12 0 20 -61h34q14 0 14 13v501q0 14 -14 14q-119 7 -142 7l-7 13v20q0 10 20 21
q7 0 7 -7l14 7h142q13 0 13 13v21l-13 20l-48 -7h-13q-10 0 -20 20v786l6 13q-10 7 -40 7v14h34v67q2 14 13 14zM89 1553q2 -14 14 -14h13q14 0 14 14t-14 14h-13q-14 -3 -14 -14z" />
    <glyph glyph-name="J" unicode="J" horiz-adv-x="1299" 
d="M409 1644h832q14 -2 14 -13v-135q0 -13 -54 -20v-87q0 -20 7 -20l-7 -34v-577q0 -40 47 -40q7 -10 7 -40h87v-81q0 -13 -13 -13h-54l-14 6l-6 -13v-289q0 -122 -74 -268l13 -7q7 0 20 7q46 -7 74 -7h41q13 -2 13 -13v-7q-12 -7 -201 -13q0 -7 -67 -67v-7q15 0 26 7
q10 -7 41 -7v-13q-171 -88 -296 -88h-214q-155 0 -363 101h-74q-61 51 -73 74l13 6h134q14 0 14 14q-22 13 -41 13h-140q-81 88 -81 181q72 26 302 74q22 10 174 47q38 -154 175 -154q94 96 94 181v242h47q35 0 40 20v60q0 14 -13 14h-61q-13 0 -13 40h-34q-13 0 -13 13v544
q0 13 -14 13h-348q-14 0 -14 14v168q2 13 14 13h33v141q0 10 20 20zM342 718h14q13 -2 13 -13v-14q0 -13 -13 -13h-14q-13 0 -13 13v14q2 13 13 13zM463 718q7 0 20 -7l40 7l7 -13v-14q0 -13 -13 -13h-61q-13 0 -13 13v14q0 13 20 13zM611 718l47 -7h6l14 7l6 -13v-27h-67
q-13 0 -13 13v14z" />
    <glyph glyph-name="K" unicode="K" horiz-adv-x="1764" 
d="M450 1644q74 -7 74 -20v-392h75q13 -2 13 -14v-128l7 -34q88 0 88 68q-7 13 -7 20l7 13q-7 12 -7 27q41 19 41 48h-61q-14 0 -14 13q12 0 372 392h568h27v-7q-86 -97 -372 -392v-6h68v-14q0 -9 -162 -162h-82l-33 -7v7l-14 -7h-54v-13h142q14 -2 14 -14q-6 -1 -190 -196
v-7q80 -99 298 -344q-17 -14 -27 -14q0 -32 74 -40l20 -27v-14h-61v-20q34 0 34 -7l34 7h74q52 0 61 -27l-7 -14l-33 7q-25 0 -61 -7q-13 7 -20 7l-14 -7q-13 7 -20 7l-7 -13q92 -93 277 -325q14 0 101 -108v-7l-6 -13q6 -13 6 -21h34q10 0 21 -20q0 -13 -14 -13h-405
q-68 0 -203 6q-19 34 -61 34v14q13 17 13 20v7q-15 0 -202 243l-149 183q2 13 13 13l28 -7q13 7 20 7v-7l13 7h75q13 0 13 14q-16 13 -27 13q-43 0 -176 7l-13 20q7 0 7 7q13 -7 20 -7l13 7q12 -7 27 -7h14v7q0 13 -34 40l-13 -6q-34 8 -34 20v7l54 40q7 13 7 21
q-13 30 -27 33h-7q-9 0 -81 -81q-27 0 -27 -13v-7l40 -27q7 -13 7 -20q-17 -14 -20 -14h-61q-14 -2 -14 -13v-548q0 -13 -13 -13h-270q-68 0 -203 6l-7 14v541q2 13 14 13h74l7 34v7q-48 0 -48 20v7q0 20 48 20v34q0 7 6 7l-6 13v493q0 14 -21 14q-135 7 -148 7l-7 13l14 7
q122 7 162 7v135l-7 34h-74q-14 0 -14 13v379q2 13 14 13h27q366 0 378 7zM443 1049v-13h34v6l-7 14q-11 -7 -27 -7zM612 1015q2 -13 14 -13l7 13v14h-7q-14 -2 -14 -14zM24 468h14q13 -2 13 -14v-13q0 -10 -20 -20q-10 0 -20 20v13q2 14 13 14zM876 -134h54q11 0 27 -27
h-74q-10 0 -21 21z" />
    <glyph glyph-name="L" unicode="L" horiz-adv-x="1240" 
d="M35 1644h469q13 0 20 -82q34 0 34 -13v-143l-54 -41h-61q-14 -2 -14 -13v-14h75q13 -2 13 -13v-707l-6 -13q47 -10 47 -21v-407q2 -14 14 -14q13 0 13 7l68 -7h510l13 -7l-6 -34v-204q0 -13 -14 -13l-41 7q-11 -7 -34 -7v-14q5 0 41 -6l41 6l7 -13v-61q0 -14 -14 -14
h-904q-57 0 -183 7v61q0 10 -20 20h-61v14h61q9 0 20 20v652q-47 26 -47 34v714q0 13 -82 20v7q63 2 109 41q20 0 20 13v123q0 40 -47 40v61q2 14 13 14z" />
    <glyph glyph-name="M" unicode="M" horiz-adv-x="1949" 
d="M131 1644q37 -7 61 -7h217q15 0 27 7q88 0 88 -61l128 -331h61v-21h-40q-14 -2 -14 -13q0 -12 61 -21l7 -13v-34h-27q54 -167 243 -622l34 6h41l-7 48v27q14 44 14 67q-14 0 -14 14v7q2 13 14 13h6l14 -7l216 528l34 -7q4 0 27 7v21h-33q-14 0 -14 13l142 365l14 7h446
q14 -2 14 -13v-372h40q14 -3 14 -14l-14 -7h-40v-521h34q13 -2 13 -13v-7q0 -10 -20 -20h-7l-14 6l-6 -13v-129h74q14 -2 14 -13v-433q0 -14 -14 -14h-74v-257q0 -13 -14 -13h-223q-68 0 -203 6v224l-7 33l14 7h47l34 7v365q27 41 27 82q-74 5 -74 20q40 128 60 128
q27 0 27 14v13q-47 0 -47 21v122h-7q-9 0 -54 -129q41 -9 41 -20q0 -18 -48 -27q0 6 -6 6q-27 -49 -54 -142h67q14 -2 14 -13q-102 -253 -129 -339q-44 -108 -54 -108h-81l-102 -270h-121q-68 0 -203 6q-88 220 -88 264h61q13 0 13 14q-124 310 -129 352v88q-4 0 -87 6
l-7 -13v-433q0 -14 -14 -14h-61q-13 -2 -13 -13v-21h34q13 -2 13 -13q0 -14 -13 -14h-34v-196q0 -13 -14 -13h-237q-57 0 -182 6l-7 14v176l41 27l-41 27v7q2 13 14 13h74l7 34v393l-7 33h-74q-14 0 -14 14v589q2 13 14 13h33v54h-33q-14 0 -14 14v6h47q14 0 14 14v14
q-15 0 -27 6q-12 -6 -27 -6l-7 13v149q0 15 7 27q-7 12 -7 27v156q2 13 14 13h40q39 0 47 7zM977 1252h41q7 0 7 -7l13 7h7v-21h-68q-13 0 -13 14zM1160 1252h68v-21h-68q-14 0 -14 14zM470 879v-345h88v102q-41 162 -88 243zM1072 697v-21h7q13 0 13 14v20h-6
q-14 -2 -14 -13zM1038 534q0 -6 -7 -6q46 -134 68 -149l34 115q-14 22 -14 34z" />
    <glyph glyph-name="N" unicode="N" horiz-adv-x="1847" 
d="M227 1641q65 0 297 -7q237 -347 264 -358q26 0 74 -47h217q13 -2 13 -14q0 -13 -13 -13h-21q-15 0 -27 6q-11 -6 -27 -6q-15 0 -27 6l-40 -6h-41l-13 6l-7 -13q80 -107 392 -561l-34 -14q93 -140 122 -162l7 34v34q0 40 -41 94q34 7 34 14q-34 52 -34 67q13 7 20 7
q-20 25 -20 47v359q-34 0 -34 6l-13 -6q-14 0 -14 13v7q2 14 14 14h47v121q-41 0 -41 14v338l7 13q135 7 203 7h243q7 0 7 -7l14 7q13 -2 13 -14v-351q44 0 48 -20v-95q0 -10 -21 -20h-40v-21h40q10 0 21 -20v-460l-48 -27v-263q0 -9 -40 -27l6 -48v-162q34 0 34 -13v-250
l7 -34l-14 -7h-304q-67 0 -203 7q-186 287 -216 297q-31 0 -67 75q-102 131 -102 148h20v14l-189 270q34 7 34 14l-95 135v95q0 38 -74 135h-7v-359l-40 -27v-13h74q13 -2 13 -14v-20q0 -10 -20 -20h-67l-7 -81v-203l7 -34q-16 -13 -41 -13v-41l34 -27v-230l7 -40
q-7 -12 -7 -27l7 -34l-14 -7h-297q-58 0 -183 7l-7 13v7q0 7 7 7l-7 13v291l-33 27v27l33 27v304q0 10 21 21h60q14 0 14 13v20q0 14 -14 14h-67q-14 0 -14 13q2 14 14 14h34v13q0 23 6 34l-6 34l6 27q0 7 -6 7l6 34v13q0 27 -6 27l6 48v27q0 88 -6 229l6 14l-6 14
q6 54 20 54h61q47 0 148 6v14h-6q-50 0 -75 7q-44 -7 -88 -7q-67 0 -67 47q-41 0 -41 20v332l7 13q145 7 203 7zM-16 1148h13q14 -3 14 -14q0 -15 -34 -20l-7 13v7q2 14 14 14zM1200 1148h7q14 -3 14 -14v-7q0 -13 -14 -13q-10 0 -20 20q2 14 13 14zM1369 674q2 -13 14 -13
v13h-14zM1396 654v-14h7v14h-7z" />
    <glyph glyph-name="O" unicode="O" horiz-adv-x="1938" 
d="M1032 1641q233 0 394 -99q-12 -6 -26 -6v-13q24 0 183 -125q39 0 79 -26h73l32 -7v-7q0 -13 -13 -13h-33q-6 0 -6 7q-11 -7 -33 -7v-6q149 -166 223 -447l-19 -13h-158v-7q97 0 112 -6q11 6 33 6h13q26 0 26 -125q2 -13 13 -13h66q6 0 6 -6l14 6h6q40 -4 40 -19
q0 -219 -125 -441l-13 -6h-125l-27 -20h-65q-13 -2 -13 -13q72 0 72 -7q-153 -252 -473 -374q-156 -40 -283 -40h-72q-77 0 -105 14q-13 -7 -20 -7q-289 49 -453 191q-127 107 -204 216q-11 7 -26 7h-59v13h65q0 20 14 20h85l33 6q-102 194 -112 355v20l7 13q6 0 6 -7
q99 7 145 7h98v7q0 13 -13 13h-236q-8 0 -33 46h-112q-13 0 -13 13t53 20v26q-7 0 -20 6q-13 -6 -20 -6q-6 13 -6 20q19 228 170 459q58 79 106 79q85 0 85 20q-22 13 -39 13h-7l-33 -6l-6 13l6 13q-26 0 -26 13q49 43 184 125h72q176 105 513 105zM486 820v-13l40 -27v-13
q0 -13 -14 -13h-32v-20h118q11 0 20 -46q141 -6 210 -6h52v-13q0 -14 -13 -14q-12 7 -19 7t-7 -7l-33 7q-24 0 -184 -7v-32q32 -161 164 -290q73 -50 73 -59l-13 -6h-92l6 -13v-7h-39v-13h79q117 -33 157 -33q38 0 125 20q0 13 -13 13h-33v13h72q7 0 92 20h66q15 0 26 6
q13 -6 20 -6q129 55 230 243q39 132 39 151v53q0 11 -65 19l-13 -6h-46q-27 0 -27 131l-32 7h-224v13q99 6 145 6h98v7q-62 175 -197 269q-149 92 -243 92q-275 0 -447 -282q-46 -116 -46 -151zM33 682h72q13 -2 13 -13l-13 -7h-72v20zM1649 655l-6 -13v-6h6q0 13 13 13v6
h-13zM841 557h7q13 -2 13 -13v-20q0 -13 -13 -13h-7q-13 0 -13 13v20q2 13 13 13zM72 485h40l6 -33l-19 -13h-20q-13 0 -20 39z" />
    <glyph glyph-name="P" unicode="P" horiz-adv-x="1485" 
d="M158 1644q36 -7 68 -7t68 7q15 0 27 -7q142 7 231 7h271q333 0 469 -156l-14 -7h-47v-13q2 -14 13 -14h82q90 -79 142 -299h75q13 -2 13 -13q-22 -14 -40 -14l-14 7q-41 -7 -41 -14q7 -13 7 -20l-20 -14h-48v-61q0 -72 -74 -230q-14 -3 -14 -14h170v-20h-122
q-16 0 -28 -7q-11 7 -27 7q-20 -21 -74 -27q-34 -32 -34 -48q13 -2 13 -14q-103 -101 -292 -129h-81q-88 0 -183 -6q-38 6 -55 6q-46 -6 -74 -6l-14 6q-12 -6 -27 -6v-34q0 -7 -7 -7q0 -48 68 -48v-576q0 -34 27 -34v-21q0 -13 -13 -13h-292q-58 0 -170 6q0 -6 -7 -6
q-2 22 -40 47v604l-34 7h-27v204l-48 27v34l61 34q125 6 156 6v7q-20 0 -47 7l-14 -7q-37 7 -61 7h-34q-13 0 -13 14v291h27q40 0 40 41q31 0 41 7q12 -7 27 -7q14 0 14 14q0 13 -14 13h-61q-13 0 -13 21q0 84 6 156q-6 52 -6 115l-14 7h-68q-13 0 -13 14q2 13 13 13h68
q16 0 20 34l-6 34q5 88 20 88h27q36 0 61 7zM-106 1481h13q14 -2 14 -13v-14h-27q-14 0 -14 14q2 13 14 13zM545 1284v-115q2 -14 14 -14h61q13 -2 13 -13q0 -14 -13 -14q-15 0 -27 7q-12 -7 -27 -7l-14 7q-9 -48 -20 -48h-48q0 -38 -7 -47q7 -37 7 -61v-14q0 -15 -7 -27
q7 -12 7 -27v-27h244q141 0 197 149q0 43 14 61l34 -7h7q13 0 13 41h68q0 7 7 21l-14 6h-74q-66 129 -224 129h-211zM878 1149h74v-14h-40l-34 7v7z" />
    <glyph glyph-name="Q" unicode="Q" horiz-adv-x="1989" 
d="M746 1644h205q65 0 219 -33q274 0 564 -365q64 -107 99 -205h60q20 0 20 -7l33 7h73q15 0 20 -34l-47 -13l-39 7l-27 -7q-7 0 -7 7l-33 -7h-13l-13 7q-7 -13 -7 -20l7 -46l-47 -14q-13 7 -20 7l-6 -13l13 -7h60q30 -40 86 -40l7 -66v-119q0 -15 -7 -27q7 -12 7 -26
q-34 -186 -54 -186h-39l-7 -33v-7l33 -26l-59 -120v-6l132 -140v-13h-40l60 -66q-165 -164 -166 -173v-6h20v-13q-79 -82 -79 -87l-67 7h-26q-96 93 -106 93q-15 0 -27 -7l-93 80q-120 -68 -318 -113v7q-42 -14 -159 -14q-277 0 -438 73q-137 54 -305 212v7l14 7h33v6
l-93 126l7 14q-10 0 -20 19l-27 -6q-5 0 -159 6v20h159q0 17 -73 186q-26 163 -26 186v139q0 13 79 20v20q0 13 -66 20q0 9 -20 19l-40 -6q0 6 -6 6q0 12 26 113q139 7 192 7l7 13v20h-179v7q20 123 206 331q150 152 338 219l6 13h-13v13q114 27 186 27zM547 1047v-6h73
q6 0 6 -7l14 7h73q13 -2 13 -14q-10 -26 -20 -26h-46q-37 0 -93 -7q-13 7 -20 7q-53 -5 -53 -53q-15 0 -27 -67q60 -3 60 -26h53q13 -2 13 -13v-14q0 -19 -86 -26v-153q37 -180 133 -285q3 0 66 -59v-14h-139v-13l33 -7h113q35 0 212 -66l79 -6q37 0 179 39v14
q-139 145 -165 145q-47 0 -47 20q0 25 80 34q239 245 245 245h80l86 -80q20 0 20 133q0 71 -27 132l-13 -6q-60 0 -60 33h-73q-13 0 -13 13l13 7h60v26q-20 26 -20 40h7q127 7 166 7l6 13q-6 20 -40 20h-73q-14 0 -26 7q-12 -7 -27 -7h-33q-152 172 -278 199q0 10 -73 26
q-224 0 -352 -132q-21 0 -79 -80zM905 928h26v-20h-26q-13 0 -13 13zM998 928h79v-20h-79v20zM1157 928h73v-20h-73q-13 0 -13 13zM872 444h6v-7l-13 -20q7 -12 7 -20h-14q-13 0 -13 14v6q0 11 27 27zM931 444v-7l-13 -20q7 -12 7 -20h-13q-14 0 -14 14v13q0 15 33 20z
M229 192q2 -13 13 -13v13h-13zM248 179v-7q3 -13 14 -13h6q0 9 -20 20zM268 152v-13h14v13h-14z" />
    <glyph glyph-name="R" unicode="R" horiz-adv-x="1544" 
d="M169 1644q13 0 13 -7q102 7 150 7h474q258 0 346 -47q61 -18 75 -41q-7 -12 -7 -27q106 -51 183 -224q48 -144 48 -217q0 -25 -20 -163q40 0 40 -14q-77 -211 -244 -312l-102 -40v-7q16 -15 75 -109q-22 -13 -34 -13l7 -14v-7q-123 -6 -163 -6v-7q2 -14 14 -14h169
l61 -74q67 0 88 -68v-7q-34 0 -34 -14q211 -303 211 -312q-27 -5 -27 -13q47 -71 47 -82l-13 -6h-340q-57 0 -183 6q-54 77 -54 82q11 7 34 7v6q-197 299 -197 326h27v14q-21 67 -81 67q-53 68 -82 68h-122v-34q0 -6 -6 -6l6 -14v-312h75q14 -2 14 -14q0 -13 -14 -13h-75
q0 -34 -6 -34l6 -14v-81q0 -15 -6 -27q6 -13 6 -21l-13 -6h-278q-68 0 -204 6v163q2 14 14 14h74v20h-74q-14 0 -14 14v352l-34 7h-135q-14 0 -14 14l14 7q169 3 169 13q0 21 14 21q13 -7 20 -7l7 13v462q2 13 13 13h34l7 41q-13 7 -20 7q-60 -7 -68 -7q0 54 -54 54v34
l47 27v455l41 27v68q2 13 13 13h48q23 0 34 7zM528 1284q0 -6 -6 -6q6 -68 6 -102v-41q0 -7 -6 -7l6 -13v-7q0 -61 -54 -61v-41q54 -4 54 -20h-6q6 -13 6 -20h163v-14h-61l-27 -34h-34v-68h210q137 0 184 68q67 0 67 48h-61l-13 6q13 47 13 82v54q0 71 -122 156
q-15 14 -135 20l-14 -6l-14 6q-6 0 -6 -6q-24 6 -28 6q-59 -6 -67 -6q-38 6 -55 6zM142 959v-7h13v7h-13zM176 959v-7h13v7h-13zM1458 966h20v-14h-20v14zM1505 966h21v-14h-21v14zM1539 966h61v-14h-61v14zM549 430l-14 7q0 -14 -13 -14q6 -13 6 -20q68 6 102 6h7l13 -6
l28 47q-27 61 -34 61h-61q-14 0 -21 -81h-13zM345 403v-7q2 -14 14 -14h122q13 0 13 14v7h-149zM888 -106h13q0 -11 14 -27v-14q-9 1 -27 34v7zM935 -174h7v-14h-7v14z" />
    <glyph glyph-name="S" unicode="S" horiz-adv-x="1411" 
d="M672 1647q11 -7 26 -7h20q144 0 191 -33h39q20 0 171 -65h66q10 0 20 -20q-7 -7 -53 -7q119 -105 119 -118v-7q-3 -11 -251 -243h-92q-134 129 -204 138h-6q-132 0 -132 -53q-28 0 -33 -92l7 -33h59q22 0 59 -33q46 -9 46 -26l-6 -13l13 -7h158v-20h-132v-6
q2 -18 138 -66q261 -77 415 -211q0 -8 66 -79q-79 -6 -79 -19q15 0 20 -33h79q18 0 39 -79l-13 -7h-66q-13 -2 -13 -13h86q9 0 19 -20v-13q0 -13 -13 -13h-66v-7q0 -34 7 -112q0 -109 -79 -257q-13 -2 -13 -13v-13h92q13 -2 13 -13q-8 0 -85 -86q-172 -131 -468 -131h-6
q-363 0 -593 224q-171 11 -171 72q-63 57 -66 105q98 65 151 92l27 -6q19 5 191 112h79q11 0 72 -99v-13h-20v-13q112 -99 224 -99q171 28 171 165q0 21 -33 92h66v6q-17 33 -52 33h-66q-28 0 -73 7l-13 -7q-13 7 -20 7v13h7q18 0 132 7v13l-185 59q-20 0 -46 7
q-11 -7 -26 -7q-42 20 -119 40v13h47v13q-204 76 -277 204q-50 68 -59 151l13 7h26q7 0 7 -7q10 7 39 7v13h-85v13q33 0 33 13l-46 27q-10 26 -20 26h-73v53q0 206 191 362h20q7 0 7 -7l13 7l13 -7q40 7 40 20l-14 7h-39v6q85 49 85 59q0 19 158 33h99q15 0 27 7zM290 1028
v-13h6v13h-6zM309 1028v-13h20q0 13 -13 13h-7zM20 1028h13v-13h-13v13zM53 1028h19v-13h-19v13zM560 508h65v-20l-46 7h-19v13zM362 390v-14h7v14h-7z" />
    <glyph glyph-name="T" unicode="T" horiz-adv-x="1257" 
d="M166 1642h1125q15 0 27 -7q12 7 27 7q14 -17 14 -27l-7 -14q7 -35 27 -54v-256l-7 -13l-34 6h-141l-41 -6q-11 6 -33 6l-47 -6q-12 6 -27 6l-14 -6q-7 0 -7 6l-33 -6h-68v-236q0 -14 -54 -21q0 -26 -13 -26h-61q-13 -3 -13 -14q2 -13 13 -13h68l13 -7l-7 -34v-61l41 -27
q0 -13 -81 -20v-397q0 -19 -68 -27v-7h102q40 -18 40 -27v-533q0 -13 -13 -13h-270q-68 0 -202 7q-7 124 -7 182v364q-61 13 -61 27l-13 -7h-61v7q2 13 14 13l33 -7q13 7 21 7v405q2 13 13 13h61v27q-34 0 -34 13v88q0 14 -14 14h-60q-14 0 -14 13q2 14 14 14h60l27 33h34
l7 61q0 13 -7 13l7 34v108q0 29 -27 40q-7 0 -7 -6l-34 6h-390q-14 0 -14 14v256q-27 0 -27 13v7q0 15 7 27q-7 12 -7 27q7 0 7 7q145 7 216 7zM226 995h14q13 -3 13 -14q0 -13 -13 -13h-14q-13 0 -13 13q2 14 13 14zM415 462v-13h7v13h-7z" />
    <glyph glyph-name="U" unicode="U" horiz-adv-x="1661" 
d="M47 1641h459q14 -2 14 -13v-480h126q14 -2 14 -13v-7q-90 -7 -134 -7h-6v-46l-34 -27v-40q23 0 47 -33h80q13 -2 13 -14v-346q0 -13 -13 -13q-7 0 -7 6q-11 -6 -26 -6v-14q0 -15 6 -26q0 -60 -60 -60v-7l47 -6l27 6q26 0 40 -100q20 -15 20 -46l-27 -14q-36 7 -60 7h-7
q0 -65 153 -147q38 -20 147 -26q142 41 227 160q2 13 13 13h53q56 0 73 67l7 33v113q0 47 13 73q-13 0 -13 14v280l7 33q-29 20 -94 20q0 -7 -6 -7q0 36 -47 40v40l40 27q0 53 13 53h120v13q-90 7 -133 7v480q2 13 13 13h453q14 -2 14 -13v-467q2 -13 13 -13h113
q14 -2 14 -13q-34 -14 -120 -14h-14q0 -60 -39 -60v-53q33 0 33 -13l-7 -14l33 -6h67l20 -14l-7 -33v-493q0 -15 7 -26q-7 -67 -20 -67h-80q-22 0 -46 -120q-46 -127 -227 -273q13 -2 13 -13v-7q-219 -113 -406 -113q-28 0 -53 -7q-278 0 -500 100q-61 40 -120 47
q-180 124 -240 313l-13 66l13 7h74q9 0 20 20l-7 93q7 13 7 20l-20 14h-80q-14 0 -14 13l14 6h46v80l47 27q0 40 7 40l-7 47v120q0 24 7 60q-7 8 -7 46v14q0 6 7 6q0 18 -40 27q-13 -7 -20 -7v7l-14 -7h-26q-18 33 -27 33h-13v20l-7 34q40 0 40 73h133v13q-99 7 -133 7
l-7 13v467q2 13 14 13zM1312 695q0 -13 -13 -13v-7h13l7 13v7h-7z" />
    <glyph glyph-name="V" unicode="V" horiz-adv-x="1354" 
d="M-240 1641h506q11 0 41 -95l263 -796v-27h-21v-13q54 -4 54 -54h75q15 0 54 -142q52 -155 60 -155h7q0 8 27 108v20q-23 89 -34 115v6l14 21v13q0 14 -20 14q-13 -7 -21 -7v13q0 19 14 41q-27 0 -27 13v7q35 0 54 34h54q61 0 61 61v6q-68 7 -102 7h-20q-13 0 -13 14
q2 13 13 13h54l34 7v13q-24 7 -27 7q-13 -7 -20 -7v7l-14 -7h-7q-13 0 -13 14l182 560q63 184 74 189h513q14 -2 14 -14q-270 -734 -270 -742q7 0 7 -7l13 7q7 0 20 -7l41 7l7 -13q-17 -14 -21 -14h-67q-14 -2 -14 -13q2 -14 14 -14h108q13 0 13 -20q-23 -54 -33 -54h-68
q-27 0 -47 -34q-41 0 -41 -13q7 0 7 -7l14 7h6q14 -3 14 -14q-14 -2 -14 -13v-14l34 -27q-213 -634 -236 -634h-81q-41 0 -41 -54h129v-21h-95q-7 0 -61 -121h-6q-7 0 -7 7l-14 -7q-6 0 -6 7l-48 -7h-256q-15 0 -27 7q-12 -7 -27 -7q-57 0 -88 13l-40 -6h-7q-9 0 -47 101
q2 13 13 13h68q13 0 13 14q-91 7 -135 7q-16 0 -20 47q14 0 14 13l27 -6q85 6 94 13q-155 411 -202 567q-21 68 -75 68h-54q-29 54 -67 54v6q11 7 34 7q-176 503 -324 904q3 0 20 14zM-85 723h61q13 -2 13 -13l-13 -7h-61q-13 0 -13 13zM205 8q11 0 27 -48l-13 -6h-7
q-11 0 -20 47z" />
    <glyph glyph-name="W" unicode="W" horiz-adv-x="2342" 
d="M-161 1644h487q18 0 54 -176q14 -101 61 -101q27 0 27 -61q-10 -7 -41 -7l102 -413q23 -115 61 -115v-40q0 -14 -14 -14h-47l7 -47h74q14 0 14 13q-7 12 -7 27l14 7h60q0 6 14 54v7q-7 0 -20 7q101 343 128 467q17 54 34 54l14 -7q24 0 34 54q-16 14 -48 14v7
q75 252 75 270h473q18 0 61 -216q18 -68 68 -68q14 0 14 -34v-13q0 -14 -34 -14v-13q34 -158 142 -501q27 -9 27 -61l-14 -7h-47v-14q14 -16 14 -33h47l34 6l-7 34v7h41q40 0 40 54q-13 17 -13 20l95 352l108 420h7q-7 13 -7 20q18 61 27 61h27q14 -2 14 -13q22 13 40 13
h420q0 -47 -14 -47q0 -7 7 -7l-223 -805q13 -2 13 -14v-34q-7 -20 -40 -20l-34 7q-16 -54 -27 -54h-95q-14 -2 -14 -14q0 -13 75 -20v-14l-7 -13l14 -7h88l33 7l7 -14v-13q0 -14 -54 -21q0 -13 -27 -115l41 -13q-14 -29 -122 -440l-21 -14q-13 7 -20 7q0 -7 -7 -7l7 -13
q-28 -149 -40 -149l-28 -7l-13 7l-41 -7h-13q-7 0 -7 7l-14 -7h-297q-58 0 -88 13q-12 -6 -27 -6h-14q-20 0 -54 155h-20v14h40q0 32 -108 453h-34q-20 0 -41 122l14 7l13 -7l7 14v7q0 15 -74 20q-36 -7 -68 -7q-9 48 -47 48l-14 -7q-11 7 -34 7v13q2 14 14 14h74l14 6
l-7 34v7h61q0 47 -20 74q13 17 13 28l-7 13q28 66 28 95q-33 135 -48 135q-55 -192 -68 -284q14 -2 14 -14q0 -54 -88 -54q0 -40 -14 -40h-94q-14 -2 -14 -14v-13h61q14 -3 14 -14v-14l-7 -13h128q14 -2 14 -14v-6q0 -13 -61 -21q0 -40 -20 -115l34 -13l-149 -589
q0 -34 -27 -34l-34 7q-7 0 -21 -7q-67 7 -101 7l-61 -7q-13 7 -20 7q-27 -7 -48 -7q-13 0 -13 7l-41 -7q-47 0 -196 7l-95 331q7 14 7 21q-35 55 -81 270h-41q-8 0 -41 122q41 9 41 21q0 20 -142 20q-14 41 -34 41q-36 -7 -41 -7q-11 7 -27 7v13q2 14 14 14h74q14 0 14 13
v14l-7 13l14 7h47v27q0 24 -41 54l-128 494q2 14 13 14q13 -7 21 -7l6 14q0 12 -20 54h-34q-24 19 -81 271zM-175 1360h20q21 -7 21 -41q0 -13 -14 -13h-13q-14 0 -28 47zM1253 852v-13h7v13h-7zM1240 839v-14h7v14h-7zM427 663q7 -13 7 -20h81v13q0 14 -13 14h-61z
M1511 656q2 -13 13 -13h75v27h-75q-13 -2 -13 -14zM-128 670l7 -14v-13h-20v13q2 14 13 14zM522 643v-28q2 -13 14 -13h40l34 7v6q0 21 -54 28l-13 -7q-14 7 -21 7zM1619 643l-7 -14v-14q2 -13 14 -13h54q10 0 20 20q-27 21 -81 21zM671 595q0 -20 -34 -40q26 -116 48 -116
h13l34 129q27 0 27 14v13h-88zM1727 568q20 -129 54 -129q37 115 48 129q13 0 13 14v13h-67q-18 -27 -48 -27zM712 433q7 -10 7 -41q20 7 20 41v6h-14zM1802 426q2 -14 13 -14h7q0 8 7 21l-14 6q-13 -2 -13 -13z" />
    <glyph glyph-name="X" unicode="X" horiz-adv-x="1188" 
d="M-254 1641h521q21 -7 196 -291v-13h-41v-14h81q48 -42 48 -67q-14 -7 -21 -7v-7q54 -72 54 -88h34q41 -27 41 -54h13q20 4 20 48q-29 0 -60 74l60 68q208 333 230 351h521q13 -2 13 -13l-236 -352q-72 -61 -95 -108v-14q20 0 20 -13l-40 -68v-7h47q14 -2 14 -13l-14 -20
q48 0 48 -14l-14 -7h-68l-13 7q-45 -67 -68 -67q-34 -25 -135 -197q336 -512 480 -716v-7q0 -10 -34 -20q109 -166 115 -189q-12 -7 -61 -14v7l-13 -7h-257q-230 0 -230 34q0 12 -101 169q10 7 40 7v13l-121 189q-34 51 -34 75l34 54q-19 45 -41 61l-88 -129
q-80 -153 -135 -196q-13 7 -20 7t-7 -7q-7 0 -20 7q-70 -7 -109 -7h-13v-13h155q14 -2 14 -14q-16 -40 -54 -40q-45 0 -75 -82q-85 -127 -94 -128h-304q-55 0 -129 7l-13 -7q-54 7 -54 14l-14 -7h-7q-13 0 -13 13q125 190 142 190q53 0 67 40q-13 7 -20 7q-13 0 -149 7v6
q2 14 14 14q38 0 47 -7q37 7 61 7h74q214 336 440 656q-74 128 -129 196q2 13 14 13l-34 54l14 7h13q7 0 7 -7l13 7h14q7 0 7 -7q11 7 27 7v14h-61q-26 33 -54 33h-48q-54 88 -108 88q-28 49 -61 88q12 7 27 7v13q-27 61 -94 61l-14 -6q-37 6 -54 6v14h68v7q0 13 -189 284
q2 13 13 13zM395 1337v-14q14 0 14 14h-14zM57 1060h27q41 -5 41 -21v-6h-61q-10 0 -20 20zM388 783v-7h14v7h-14z" />
    <glyph glyph-name="Y" unicode="Y" horiz-adv-x="1317" 
d="M-178 1641h527q63 -69 169 -257q-14 -6 -74 -13v-7q0 -10 20 -20h27l48 6q36 -59 47 -60h88v-21h-74v-6q6 -14 6 -21q-16 -13 -27 -13l115 -196h14q33 67 33 74q-16 0 -40 61q35 68 88 68q24 33 54 40l34 -7l33 7v14h-60q-14 0 -14 13q0 6 216 338h521q13 -2 13 -13
q-162 -223 -223 -338h61q14 -2 14 -14l-14 -7h-74l-41 -40h-40q-352 -537 -352 -548h88q14 -2 14 -13q-25 -14 -54 -14h-34l-14 7l-7 -14v-189l41 -27v-47q0 -14 -13 -14h-142v-7q15 0 27 -6q6 0 6 6l34 -6h108q14 -2 14 -14v-493l27 -27q0 -14 -20 -14q-7 0 -7 7l-34 -7
h-304q-7 0 -7 7q-7 0 -7 -7q-82 9 -94 14q0 -7 -7 -7q0 4 -34 34v480q0 9 -20 20h-102l-40 7q-13 -7 -20 -7v7l-14 -7h-7q-13 0 -13 13l13 7h149q14 0 14 14v47q0 9 -48 27l7 47v129l-7 13l21 14h47q7 0 7 -7q33 9 33 20l-67 7h-34q-49 42 -372 548q12 7 27 7l-7 33h41l34 7
q0 14 -14 14h-74l-47 54h-75q-10 0 -27 27q81 7 81 20q-162 223 -162 250zM431 729v-7h13v7h-13zM289 681l6 -13l-13 -7l-7 13zM343 681h6v-20h-20v7q2 13 14 13z" />
    <glyph glyph-name="Z" unicode="Z" horiz-adv-x="1505" 
d="M169 1644h1395v-20h-74q-24 -11 -129 -224q48 0 48 -13q-165 -333 -224 -413q-66 0 -68 -7q-11 7 -27 7h-13q0 -4 13 -21v-7l-6 -13l47 -7q20 0 20 7l34 -7h102q13 -2 13 -13l-13 -7h-68q-24 0 -61 -7q-9 7 -47 7q-48 -61 -217 -400l13 -7h68q14 -2 14 -13
q-4 -20 -54 -20h-55l-40 -41h-88q-18 -27 -82 -27l41 -27q-79 -152 -95 -197h68l41 -6q6 0 6 6l48 -6q40 0 40 6l68 -6h332q47 0 149 6q19 -47 27 -47h81q14 -2 14 -14v-216l-7 -81q-67 -7 -1449 0h-20q-14 0 -14 13q112 200 149 291v7h-7l-61 7q-13 -7 -20 -7l-7 14
l122 223v20h-34v14h41l40 34h89q4 0 40 40h88q14 0 14 14q0 13 -14 13h-68l-13 7l210 393q112 7 169 7h14q13 0 13 13v7h-7q-67 0 -203 7v7q0 40 109 40l155 285v20h-555q-15 0 -27 7q-7 0 -7 -7l-47 7h-48q-13 0 -13 13v82l7 13q-61 0 -61 27l6 41l-6 41l6 40l-6 68l13 7
h61zM108 1421v-14h7v14h-7zM34 1387h13v-88h-13v88zM183 1346v-14q13 0 13 -13h7v13zM372 974h61v-14h-61v14zM528 974h14v-14h-14v14z" />
    <glyph glyph-name="bracketleft" unicode="[" horiz-adv-x="758" 
 />
    <glyph glyph-name="backslash" unicode="\" horiz-adv-x="569" 
 />
    <glyph glyph-name="bracketright" unicode="]" horiz-adv-x="758" 
 />
    <glyph glyph-name="asciicircum" unicode="^" 
 />
    <glyph glyph-name="underscore" unicode="_" horiz-adv-x="1024" 
 />
    <glyph glyph-name="grave" unicode="`" horiz-adv-x="1024" 
 />
    <glyph glyph-name="a" unicode="a" horiz-adv-x="1351" 
d="M519 1643h399q12 -2 109 -284l20 -13h68q18 -14 162 -434l48 -135l-14 -7h-156v-7q0 -36 41 -40l41 6h6q29 -15 190 -514l-14 -7q-23 7 -27 7q-6 0 -6 -7l-48 7h-34q-13 -2 -13 -14q36 -108 47 -108h136q13 -2 13 -14v-6q0 -14 -13 -14h-149q-16 0 -27 7q-12 -7 -28 -7
h-142l-47 7l-7 -14q2 -13 14 -13h406q20 0 88 -224v-7h-508q-11 0 -81 231h-359q-15 0 -27 6q-12 -6 -27 -6q-14 0 -14 13q7 0 7 7q125 7 183 7h217q13 0 13 13l-20 14h-136q-8 0 -40 61h-54v-7q0 -6 6 -54h-61q-7 0 -47 61h-393q-39 0 -47 -54l13 -7h115q14 -2 14 -14v-6
l-88 -265h-515v7l95 271l-203 7q-14 0 -14 13q34 109 48 109h183q49 0 67 115q12 1 68 169l75 217v7h-68q-14 63 -5 44q-9 10 181 10q10 2 108 277l95 278v7h-34v7q51 173 109 291zM736 1054q-73 -284 -102 -284h-156q-13 0 -20 -41h41q40 -4 40 -20q-68 -209 -68 -217
l34 -6l48 6q13 -6 20 -6l41 6q6 0 6 -6l34 6h115q7 0 7 -6q68 6 68 20v7q-25 45 -61 176q0 35 -61 40q0 17 -14 34q3 14 14 14h115q-34 124 -88 277h-13z" />
    <glyph glyph-name="b" unicode="b" horiz-adv-x="1584" 
d="M297 1644h603q374 0 528 -264q-18 -5 -82 -13q30 -62 54 -176h68q14 0 14 -20h81q13 -3 13 -14v-27q0 -14 -13 -14q-7 0 -7 7q-7 0 -7 -7l-33 7h-28q0 -251 -209 -379v-13q270 -119 270 -420v-54h7q9 0 68 7l7 -14q-5 -88 -27 -88h-28q-15 0 -27 7q-23 0 -61 -122
l-54 -54l-47 7h-20q-185 -190 -379 -190h-995q-14 0 -14 14v162q2 14 14 14h67q14 0 14 13v14q0 20 -7 20l7 34v399q0 14 -14 14h-40q-58 0 -183 7l-7 13v7l7 13q125 7 183 7h47l7 34v501l-7 40q7 12 7 34v21q0 8 -48 33v156q0 9 41 20q7 14 7 21q0 21 -7 128q7 102 14 109
q145 6 216 6zM-82 1367h14v-169h-14v169zM-34 1367h13v-169h-13v169zM595 1279h-122v-75q2 -13 14 -13h61q3 0 20 -14l-7 -47v-223q2 -14 14 -14h270q149 60 149 176v54h82v7q0 29 -28 41l-13 -7q-7 0 -7 7l-13 -7h-34q-24 27 -48 27h-54q-81 88 -128 88h-136q-6 0 -6 7z
M568 555v-21h74q101 0 271 7q-4 20 -54 20h-108q-58 0 -183 -6zM324 534q0 -13 -6 -13q6 -13 6 -20h224v20l-48 13h-176zM1055 534v-27l7 -13l47 7h176q14 0 14 13v7q0 13 -14 13h-230zM-217 534q13 -2 13 -13v-7q0 -13 -13 -13q-14 0 -14 13v7q2 13 14 13zM609 494h-41
l-7 -48q0 -20 7 -20l-7 -34v-34q0 -58 7 -121q-7 -26 -7 -61l14 -7h413q55 0 121 81q-81 7 -81 20q23 0 34 129q-54 95 -61 95q-50 0 -332 7l-47 -7v7z" />
    <glyph glyph-name="c" unicode="c" horiz-adv-x="1784" 
d="M690 1644q7 0 7 -7l26 7q318 0 543 -152q238 0 238 -53q149 -120 231 -258v-40l-245 -125q-68 -40 -99 -40h-66q-149 208 -271 238q-40 19 -126 46q-117 0 -271 -79v-7q73 0 73 -13q-179 -161 -179 -251q-21 -25 -39 -132h-133q-13 -2 -13 -14q0 -9 20 -19h112
q10 0 33 -166q34 -134 139 -238l-13 -6h-73v-14q88 -86 291 -132q75 0 219 60q133 0 205 86h6v13h-66v6q25 45 86 119h79q14 0 232 -119q139 0 192 -59v-7q-27 -29 -27 -33l-46 7q-43 0 -119 -132q-29 -14 -106 -14h-13q-10 0 -20 -19h86v-20q-211 -196 -357 -219
q-105 -52 -238 -52h-139q-361 0 -642 257q-28 34 -99 34q-23 -7 -26 -7q-27 10 -27 20q2 13 14 13q7 0 19 -7l40 7h13v7q-119 163 -119 198v7h66l33 6q-77 176 -86 357h-85v20h72q13 0 13 13q0 14 -13 14h-119q-13 0 -13 13v20q30 0 40 6l13 -6q99 0 99 26q13 187 106 351v6
q0 13 -13 13h-66l-14 7q119 210 271 291q0 13 -13 13h-132v7q77 69 278 126q107 19 192 19h13q15 0 26 7zM260 718v-20h20q13 0 13 14l-13 6h-20zM961 348h60q13 -2 13 -13q-83 -73 -119 -73h-53v13q25 0 99 73z" />
    <glyph glyph-name="d" unicode="d" horiz-adv-x="1767" 
d="M254 1644h386q413 0 645 -190q170 -139 251 -278h95q122 -208 122 -359v-14q0 -3 -14 -20l-34 6h-54v-33q0 -14 -14 -14h-74v-54h74q14 -2 14 -14v-13q0 -148 -115 -387q-14 -2 -14 -14v-6h129q13 -2 13 -14q-22 -13 -40 -13h-116l-101 -123h-129q-102 0 -102 -33v-7h176
q14 -2 14 -14q-11 0 -81 -61q-256 -183 -495 -183h-747v244q0 14 -13 14h-14q-176 0 -176 20v7q2 13 14 13h176q13 0 13 14v109q45 0 136 6v14q-92 7 -129 7l-7 13v400q0 10 -20 21h-61q-13 0 -13 13v27q0 16 54 21l13 -7l48 41q88 0 88 20v359q0 16 -109 28v434l7 13
q136 7 204 7zM532 1264v-74q2 -14 13 -14h82q13 -2 13 -14v-359q0 -5 -20 -20l-34 6h-41l-27 -47h-61q-13 -2 -13 -14v-40h74q6 0 21 -21l-7 -34v-264q0 -15 7 -27q-7 -12 -7 -27v-27l7 -34h81q15 0 27 -7q12 7 27 7l7 -14l-27 -13q-14 0 -14 6l-47 -6h-54l-7 -34v-14
q2 -14 13 -14h143q66 0 217 62q102 6 149 6l7 14q-68 7 -102 7h-13v13q125 91 183 265l34 142l-21 14h-61q-13 0 -13 13v27q0 10 20 21q7 0 7 -7q63 0 81 41h41l47 6v14q-25 200 -196 366q-149 12 -184 48q-109 61 -183 61h-156q-13 -2 -13 -14zM10 1176h13q14 -2 14 -14
v-13q0 -12 -34 -20l-7 13v20q2 14 14 14zM973 783h74q14 -2 14 -14v-7q0 -13 -14 -13h-61q-13 0 -13 13v21zM-113 749h14q14 -2 14 -14v-34q0 -13 -14 -13h-27v47q2 14 13 14z" />
    <glyph glyph-name="e" unicode="e" horiz-adv-x="1248" 
d="M228 1644h962q9 0 20 -20v-231q0 -9 20 -20h27q16 0 28 7q33 -9 33 -20v-14q0 -13 -13 -13h-34v-34q0 -14 -14 -14h-467q-71 0 -216 -7v-61q2 -13 13 -13h61q14 -2 14 -14v-291h589q13 -2 13 -13v-102q0 -13 -74 -20l-14 7l-40 -7q-14 7 -21 7l-7 -34v-115l7 -68l-20 -14
h-576q0 -23 -47 -27l-41 7h-13q-14 -2 -14 -14v-6h41l68 -7v-224q0 -36 40 -40q0 -15 7 -27q-7 -12 -7 -27v-7h644q13 0 20 -68h101q14 -2 14 -13q0 -14 -14 -14h-74l-34 -7v-257h-1110q-7 0 -7 7l-14 -7h-40q-10 0 -21 20v14q0 7 7 7l-7 13v163l-34 6h-60q-14 0 -14 14v14
q2 13 14 13q113 7 176 7h27v13l-68 7h-27q-14 0 -14 20l7 14q-7 12 -7 27q0 9 41 20q7 12 7 28q0 29 -48 33v231l7 13l-13 7h-88q-14 0 -14 13q2 14 14 14h81q13 0 13 14v223q0 14 21 14t128 6v413q0 21 -74 21h-14v108l48 27v14q0 13 -14 13h-81q-14 0 -14 14v237l7 13
q136 7 203 7zM-29 831h34q13 -2 13 -13v-34q0 -13 -13 -13h-34q-14 0 -14 13v34q3 13 14 13zM215 80h61v13h-48q-13 -2 -13 -13zM946 73v-27q2 -14 14 -14h94q0 8 7 21q-7 13 -7 20h-108z" />
    <glyph glyph-name="f" unicode="f" horiz-adv-x="1160" 
d="M267 1641h958q14 -2 14 -14v-333l-14 -20l-47 7q-589 -7 -639 -7v-34q0 -14 -14 -14h-122q-14 -2 -14 -13v-41q2 -14 14 -14h7q20 0 20 7q75 -7 88 -20h150q14 -2 14 -14v-7q-62 -6 -116 -6h-61v-211q2 -14 13 -14h701q13 -2 13 -13v-326q0 -10 -20 -21h-564
q-10 0 -21 -20v-224l7 -34h68q14 -3 14 -14v-82q0 -13 -14 -13h-68q0 -7 -7 -21v-149l7 -34h197q14 -2 14 -14v-6q0 -14 -21 -14q-53 0 -190 -7q0 -7 -7 -7l7 -47v-34q0 -14 -14 -14h-469q-13 0 -13 14v81q2 14 13 14h157q35 7 41 7v20l-177 7h-21q-13 0 -13 13v184
q2 14 13 14h68v88q0 14 -81 20v626q-14 0 -14 6q-7 0 -7 -6l-47 6h-48q-13 0 -13 14v197q2 14 13 14q124 6 163 6q0 14 -20 14q-97 0 -197 20h-68v55q2 13 14 13h40q7 0 7 -6q12 5 82 13v388l7 13q146 7 217 7zM43 248l7 -14v-68q0 -13 -14 -13l-7 13v68q2 14 14 14zM90 248
h14q13 -2 13 -14v-27q0 -7 -6 -7l6 -13v-21q0 -13 -13 -13h-14q-13 0 -13 13v68q2 14 13 14z" />
    <glyph glyph-name="g" unicode="g" horiz-adv-x="2009" 
d="M1124 1639q234 0 433 -112v-6q-35 0 -59 -7v-6q148 -70 308 -289q64 0 79 -39q0 -9 -39 -20q0 -30 -217 -125q-98 -65 -138 -65h-52l-125 150q-48 25 -52 40v6h26v14q-9 0 -85 39h-27q-61 0 -98 26h-105q-15 0 -26 -6l-13 6q-227 -71 -296 -184q-16 -19 -85 -26v-6
q2 -14 13 -14q13 0 13 7l66 -7h118v-6q0 -13 -13 -13h-158q-39 -26 -78 -223v-53q0 -80 39 -210l-13 -6h-66l-39 -7q-13 7 -20 7l-13 -7q-13 7 -20 7v-7q44 -125 177 -210q65 -46 92 -46h164q154 -46 224 -46q136 46 170 46q13 -7 20 -7q149 100 157 125q38 27 105 138v7
h-525q-13 0 -13 13v183q33 20 33 33l-6 13q6 12 6 27q-33 8 -33 19q13 17 13 20q14 0 14 -7q77 7 111 7h683q14 0 26 -7q11 7 26 7h118l40 -46v-39q-33 -18 -40 -86q-6 -96 -6 -131q33 0 33 -13v-7q-75 -256 -132 -256q-11 7 -26 7q-154 -278 -551 -407q-111 -20 -164 -20
h-125q-504 0 -794 427h-177q-33 18 -112 223v40h177l-26 210v32q29 250 52 250q127 6 165 6v13h-7q-69 0 -210 7q0 10 66 26q127 319 393 466q104 0 178 46q176 79 446 79zM-12 1042h20v-20q-23 -7 -26 -7l-7 14q2 13 13 13zM855 812q65 -5 65 -20q0 -13 -13 -13h-59
q-13 0 -13 13q0 10 20 20zM769 805h14q13 -2 13 -13v-13h-27q-13 0 -13 13q2 13 13 13z" />
    <glyph glyph-name="h" unicode="h" horiz-adv-x="1801" 
d="M175 1641l47 -7h276q15 0 26 7q41 -9 41 -20v-504q0 -14 -14 -14h-67q-13 -2 -13 -13v-7q0 -13 53 -20q12 7 27 7q14 -17 14 -27l-7 -14q0 -15 40 -27q0 -94 27 -94q54 0 54 -6l34 6h544q7 24 7 27q0 7 -7 20l7 34q-7 13 -7 20h-34q-13 0 -13 14v40h-208q-14 0 -14 13v21
q124 6 182 6h27q13 0 13 14v504q2 13 13 13h471v-490l7 -34l-14 -7h-101l-40 -6q-11 6 -33 6h-27q-14 -2 -14 -13v-7q2 -13 14 -13q124 -7 208 -7q0 -7 7 -7l-7 -33q0 -14 54 -21v-470l6 -13l14 6h27q40 -4 40 -20v-34q0 -9 -20 -20q-24 7 -27 7l-40 -7v-148q0 -16 -54 -26
v-404l7 -47l-20 -13h-283q-57 0 -181 6l-7 14v444q2 13 13 13h34l7 47q0 15 -7 27q9 82 14 94l13 -7h40q10 0 20 20v34q0 14 -80 20l-14 27l-13 -7h-148q-24 0 -60 7q-12 -7 -27 -7l-14 7q-12 -7 -27 -7q-6 0 -6 7l-14 -7h-188l-40 7q-11 -7 -34 -7h-60q-14 -2 -14 -13v-229
q2 -13 14 -13h40q15 0 27 7q54 -7 54 -20v-7q0 -14 -14 -14h-175l-33 -6v-424q0 -13 -14 -13h-289q-57 0 -181 6l-7 14v87q0 7 7 7l-7 13v303q2 13 13 13h7q20 0 20 -6l34 6h114l34 7v14q0 13 -14 13h-107q-14 0 -14 13v693l-40 27q0 40 -13 40h-68q-13 0 -13 13v7
q2 14 13 14h61q10 0 20 20v369q0 16 7 27q-7 12 -7 27v81q2 13 14 13h60q27 0 27 7zM1123 519h60q14 -3 14 -14v-34q0 -13 -14 -13q-74 0 -74 20h7l-7 14v13q2 14 14 14z" />
    <glyph glyph-name="i" unicode="i" horiz-adv-x="657" 
d="M55 1641h467q14 0 21 -74h74q14 -3 14 -14l-21 -14q-23 7 -27 7q-12 -7 -27 -7v7q-13 -7 -20 -7v-799q0 -16 54 -20q12 7 27 7q0 -3 14 -20v-21q0 -9 -21 -20h-40q-21 0 -21 7l-33 -7h-68q-14 -2 -14 -14v-27q2 -13 14 -13h142v-474q0 -15 7 -27q-11 -34 -41 -34
q0 7 -7 7l-6 -14v-196q2 -14 13 -14q12 7 27 7q14 -25 14 -54l-14 -7h-298q-57 0 -182 7v40l-48 27q0 7 -7 7l7 48v40q0 16 -7 27q7 12 7 27v34q0 13 -61 34q-7 13 -7 20q11 28 21 28h27q12 0 20 -61h34q14 0 14 13v501q0 14 -14 14q-119 7 -142 7l-7 13v20q0 10 20 21
q7 0 7 -7l14 7h142q13 0 13 13v21l-13 20l-48 -7h-13q-10 0 -20 20v786l6 13q-10 7 -40 7v14h34v67q2 14 13 14zM89 1553q2 -14 14 -14h13q14 0 14 14t-14 14h-13q-14 -3 -14 -14z" />
    <glyph glyph-name="j" unicode="j" horiz-adv-x="1299" 
d="M409 1644h832q14 -2 14 -13v-135q0 -13 -54 -20v-87q0 -20 7 -20l-7 -34v-577q0 -40 47 -40q7 -10 7 -40h87v-81q0 -13 -13 -13h-54l-14 6l-6 -13v-289q0 -122 -74 -268l13 -7q7 0 20 7q46 -7 74 -7h41q13 -2 13 -13v-7q-12 -7 -201 -13q0 -7 -67 -67v-7q15 0 26 7
q10 -7 41 -7v-13q-171 -88 -296 -88h-214q-155 0 -363 101h-74q-61 51 -73 74l13 6h134q14 0 14 14q-22 13 -41 13h-140q-81 88 -81 181q72 26 302 74q22 10 174 47q38 -154 175 -154q94 96 94 181v242h47q35 0 40 20v60q0 14 -13 14h-61q-13 0 -13 40h-34q-13 0 -13 13v544
q0 13 -14 13h-348q-14 0 -14 14v168q2 13 14 13h33v141q0 10 20 20zM342 718h14q13 -2 13 -13v-14q0 -13 -13 -13h-14q-13 0 -13 13v14q2 13 13 13zM463 718q7 0 20 -7l40 7l7 -13v-14q0 -13 -13 -13h-61q-13 0 -13 13v14q0 13 20 13zM611 718l47 -7h6l14 7l6 -13v-27h-67
q-13 0 -13 13v14z" />
    <glyph glyph-name="k" unicode="k" horiz-adv-x="1764" 
d="M450 1644q74 -7 74 -20v-392h75q13 -2 13 -14v-128l7 -34q88 0 88 68q-7 13 -7 20l7 13q-7 12 -7 27q41 19 41 48h-61q-14 0 -14 13q12 0 372 392h568h27v-7q-86 -97 -372 -392v-6h68v-14q0 -9 -162 -162h-82l-33 -7v7l-14 -7h-54v-13h142q14 -2 14 -14q-6 -1 -190 -196
v-7q80 -99 298 -344q-17 -14 -27 -14q0 -32 74 -40l20 -27v-14h-61v-20q34 0 34 -7l34 7h74q52 0 61 -27l-7 -14l-33 7q-25 0 -61 -7q-13 7 -20 7l-14 -7q-13 7 -20 7l-7 -13q92 -93 277 -325q14 0 101 -108v-7l-6 -13q6 -13 6 -21h34q10 0 21 -20q0 -13 -14 -13h-405
q-68 0 -203 6q-19 34 -61 34v14q13 17 13 20v7q-15 0 -202 243l-149 183q2 13 13 13l28 -7q13 7 20 7v-7l13 7h75q13 0 13 14q-16 13 -27 13q-43 0 -176 7l-13 20q7 0 7 7q13 -7 20 -7l13 7q12 -7 27 -7h14v7q0 13 -34 40l-13 -6q-34 8 -34 20v7l54 40q7 13 7 21
q-13 30 -27 33h-7q-9 0 -81 -81q-27 0 -27 -13v-7l40 -27q7 -13 7 -20q-17 -14 -20 -14h-61q-14 -2 -14 -13v-548q0 -13 -13 -13h-270q-68 0 -203 6l-7 14v541q2 13 14 13h74l7 34v7q-48 0 -48 20v7q0 20 48 20v34q0 7 6 7l-6 13v493q0 14 -21 14q-135 7 -148 7l-7 13l14 7
q122 7 162 7v135l-7 34h-74q-14 0 -14 13v379q2 13 14 13h27q366 0 378 7zM443 1049v-13h34v6l-7 14q-11 -7 -27 -7zM612 1015q2 -13 14 -13l7 13v14h-7q-14 -2 -14 -14zM24 468h14q13 -2 13 -14v-13q0 -10 -20 -20q-10 0 -20 20v13q2 14 13 14zM876 -134h54q11 0 27 -27
h-74q-10 0 -21 21z" />
    <glyph glyph-name="l" unicode="l" horiz-adv-x="1240" 
d="M35 1644h469q13 0 20 -82q34 0 34 -13v-143l-54 -41h-61q-14 -2 -14 -13v-14h75q13 -2 13 -13v-707l-6 -13q47 -10 47 -21v-407q2 -14 14 -14q13 0 13 7l68 -7h510l13 -7l-6 -34v-204q0 -13 -14 -13l-41 7q-11 -7 -34 -7v-14q5 0 41 -6l41 6l7 -13v-61q0 -14 -14 -14
h-904q-57 0 -183 7v61q0 10 -20 20h-61v14h61q9 0 20 20v652q-47 26 -47 34v714q0 13 -82 20v7q63 2 109 41q20 0 20 13v123q0 40 -47 40v61q2 14 13 14z" />
    <glyph glyph-name="m" unicode="m" horiz-adv-x="1949" 
d="M131 1644q37 -7 61 -7h217q15 0 27 7q88 0 88 -61l128 -331h61v-21h-40q-14 -2 -14 -13q0 -12 61 -21l7 -13v-34h-27q54 -167 243 -622l34 6h41l-7 48v27q14 44 14 67q-14 0 -14 14v7q2 13 14 13h6l14 -7l216 528l34 -7q4 0 27 7v21h-33q-14 0 -14 13l142 365l14 7h446
q14 -2 14 -13v-372h40q14 -3 14 -14l-14 -7h-40v-521h34q13 -2 13 -13v-7q0 -10 -20 -20h-7l-14 6l-6 -13v-129h74q14 -2 14 -13v-433q0 -14 -14 -14h-74v-257q0 -13 -14 -13h-223q-68 0 -203 6v224l-7 33l14 7h47l34 7v365q27 41 27 82q-74 5 -74 20q40 128 60 128
q27 0 27 14v13q-47 0 -47 21v122h-7q-9 0 -54 -129q41 -9 41 -20q0 -18 -48 -27q0 6 -6 6q-27 -49 -54 -142h67q14 -2 14 -13q-102 -253 -129 -339q-44 -108 -54 -108h-81l-102 -270h-121q-68 0 -203 6q-88 220 -88 264h61q13 0 13 14q-124 310 -129 352v88q-4 0 -87 6
l-7 -13v-433q0 -14 -14 -14h-61q-13 -2 -13 -13v-21h34q13 -2 13 -13q0 -14 -13 -14h-34v-196q0 -13 -14 -13h-237q-57 0 -182 6l-7 14v176l41 27l-41 27v7q2 13 14 13h74l7 34v393l-7 33h-74q-14 0 -14 14v589q2 13 14 13h33v54h-33q-14 0 -14 14v6h47q14 0 14 14v14
q-15 0 -27 6q-12 -6 -27 -6l-7 13v149q0 15 7 27q-7 12 -7 27v156q2 13 14 13h40q39 0 47 7zM977 1252h41q7 0 7 -7l13 7h7v-21h-68q-13 0 -13 14zM1160 1252h68v-21h-68q-14 0 -14 14zM470 879v-345h88v102q-41 162 -88 243zM1072 697v-21h7q13 0 13 14v20h-6
q-14 -2 -14 -13zM1038 534q0 -6 -7 -6q46 -134 68 -149l34 115q-14 22 -14 34z" />
    <glyph glyph-name="n" unicode="n" horiz-adv-x="1847" 
d="M227 1641q65 0 297 -7q237 -347 264 -358q26 0 74 -47h217q13 -2 13 -14q0 -13 -13 -13h-21q-15 0 -27 6q-11 -6 -27 -6q-15 0 -27 6l-40 -6h-41l-13 6l-7 -13q80 -107 392 -561l-34 -14q93 -140 122 -162l7 34v34q0 40 -41 94q34 7 34 14q-34 52 -34 67q13 7 20 7
q-20 25 -20 47v359q-34 0 -34 6l-13 -6q-14 0 -14 13v7q2 14 14 14h47v121q-41 0 -41 14v338l7 13q135 7 203 7h243q7 0 7 -7l14 7q13 -2 13 -14v-351q44 0 48 -20v-95q0 -10 -21 -20h-40v-21h40q10 0 21 -20v-460l-48 -27v-263q0 -9 -40 -27l6 -48v-162q34 0 34 -13v-250
l7 -34l-14 -7h-304q-67 0 -203 7q-186 287 -216 297q-31 0 -67 75q-102 131 -102 148h20v14l-189 270q34 7 34 14l-95 135v95q0 38 -74 135h-7v-359l-40 -27v-13h74q13 -2 13 -14v-20q0 -10 -20 -20h-67l-7 -81v-203l7 -34q-16 -13 -41 -13v-41l34 -27v-230l7 -40
q-7 -12 -7 -27l7 -34l-14 -7h-297q-58 0 -183 7l-7 13v7q0 7 7 7l-7 13v291l-33 27v27l33 27v304q0 10 21 21h60q14 0 14 13v20q0 14 -14 14h-67q-14 0 -14 13q2 14 14 14h34v13q0 23 6 34l-6 34l6 27q0 7 -6 7l6 34v13q0 27 -6 27l6 48v27q0 88 -6 229l6 14l-6 14
q6 54 20 54h61q47 0 148 6v14h-6q-50 0 -75 7q-44 -7 -88 -7q-67 0 -67 47q-41 0 -41 20v332l7 13q145 7 203 7zM-16 1148h13q14 -3 14 -14q0 -15 -34 -20l-7 13v7q2 14 14 14zM1200 1148h7q14 -3 14 -14v-7q0 -13 -14 -13q-10 0 -20 20q2 14 13 14zM1369 674q2 -13 14 -13
v13h-14zM1396 654v-14h7v14h-7z" />
    <glyph glyph-name="o" unicode="o" horiz-adv-x="1938" 
d="M1032 1641q233 0 394 -99q-12 -6 -26 -6v-13q24 0 183 -125q39 0 79 -26h73l32 -7v-7q0 -13 -13 -13h-33q-6 0 -6 7q-11 -7 -33 -7v-6q149 -166 223 -447l-19 -13h-158v-7q97 0 112 -6q11 6 33 6h13q26 0 26 -125q2 -13 13 -13h66q6 0 6 -6l14 6h6q40 -4 40 -19
q0 -219 -125 -441l-13 -6h-125l-27 -20h-65q-13 -2 -13 -13q72 0 72 -7q-153 -252 -473 -374q-156 -40 -283 -40h-72q-77 0 -105 14q-13 -7 -20 -7q-289 49 -453 191q-127 107 -204 216q-11 7 -26 7h-59v13h65q0 20 14 20h85l33 6q-102 194 -112 355v20l7 13q6 0 6 -7
q99 7 145 7h98v7q0 13 -13 13h-236q-8 0 -33 46h-112q-13 0 -13 13t53 20v26q-7 0 -20 6q-13 -6 -20 -6q-6 13 -6 20q19 228 170 459q58 79 106 79q85 0 85 20q-22 13 -39 13h-7l-33 -6l-6 13l6 13q-26 0 -26 13q49 43 184 125h72q176 105 513 105zM486 820v-13l40 -27v-13
q0 -13 -14 -13h-32v-20h118q11 0 20 -46q141 -6 210 -6h52v-13q0 -14 -13 -14q-12 7 -19 7t-7 -7l-33 7q-24 0 -184 -7v-32q32 -161 164 -290q73 -50 73 -59l-13 -6h-92l6 -13v-7h-39v-13h79q117 -33 157 -33q38 0 125 20q0 13 -13 13h-33v13h72q7 0 92 20h66q15 0 26 6
q13 -6 20 -6q129 55 230 243q39 132 39 151v53q0 11 -65 19l-13 -6h-46q-27 0 -27 131l-32 7h-224v13q99 6 145 6h98v7q-62 175 -197 269q-149 92 -243 92q-275 0 -447 -282q-46 -116 -46 -151zM33 682h72q13 -2 13 -13l-13 -7h-72v20zM1649 655l-6 -13v-6h6q0 13 13 13v6
h-13zM841 557h7q13 -2 13 -13v-20q0 -13 -13 -13h-7q-13 0 -13 13v20q2 13 13 13zM72 485h40l6 -33l-19 -13h-20q-13 0 -20 39z" />
    <glyph glyph-name="p" unicode="p" horiz-adv-x="1485" 
d="M158 1644q36 -7 68 -7t68 7q15 0 27 -7q142 7 231 7h271q333 0 469 -156l-14 -7h-47v-13q2 -14 13 -14h82q90 -79 142 -299h75q13 -2 13 -13q-22 -14 -40 -14l-14 7q-41 -7 -41 -14q7 -13 7 -20l-20 -14h-48v-61q0 -72 -74 -230q-14 -3 -14 -14h170v-20h-122
q-16 0 -28 -7q-11 7 -27 7q-20 -21 -74 -27q-34 -32 -34 -48q13 -2 13 -14q-103 -101 -292 -129h-81q-88 0 -183 -6q-38 6 -55 6q-46 -6 -74 -6l-14 6q-12 -6 -27 -6v-34q0 -7 -7 -7q0 -48 68 -48v-576q0 -34 27 -34v-21q0 -13 -13 -13h-292q-58 0 -170 6q0 -6 -7 -6
q-2 22 -40 47v604l-34 7h-27v204l-48 27v34l61 34q125 6 156 6v7q-20 0 -47 7l-14 -7q-37 7 -61 7h-34q-13 0 -13 14v291h27q40 0 40 41q31 0 41 7q12 -7 27 -7q14 0 14 14q0 13 -14 13h-61q-13 0 -13 21q0 84 6 156q-6 52 -6 115l-14 7h-68q-13 0 -13 14q2 13 13 13h68
q16 0 20 34l-6 34q5 88 20 88h27q36 0 61 7zM-106 1481h13q14 -2 14 -13v-14h-27q-14 0 -14 14q2 13 14 13zM545 1284v-115q2 -14 14 -14h61q13 -2 13 -13q0 -14 -13 -14q-15 0 -27 7q-12 -7 -27 -7l-14 7q-9 -48 -20 -48h-48q0 -38 -7 -47q7 -37 7 -61v-14q0 -15 -7 -27
q7 -12 7 -27v-27h244q141 0 197 149q0 43 14 61l34 -7h7q13 0 13 41h68q0 7 7 21l-14 6h-74q-66 129 -224 129h-211zM878 1149h74v-14h-40l-34 7v7z" />
    <glyph glyph-name="q" unicode="q" horiz-adv-x="1989" 
d="M746 1644h205q65 0 219 -33q274 0 564 -365q64 -107 99 -205h60q20 0 20 -7l33 7h73q15 0 20 -34l-47 -13l-39 7l-27 -7q-7 0 -7 7l-33 -7h-13l-13 7q-7 -13 -7 -20l7 -46l-47 -14q-13 7 -20 7l-6 -13l13 -7h60q30 -40 86 -40l7 -66v-119q0 -15 -7 -27q7 -12 7 -26
q-34 -186 -54 -186h-39l-7 -33v-7l33 -26l-59 -120v-6l132 -140v-13h-40l60 -66q-165 -164 -166 -173v-6h20v-13q-79 -82 -79 -87l-67 7h-26q-96 93 -106 93q-15 0 -27 -7l-93 80q-120 -68 -318 -113v7q-42 -14 -159 -14q-277 0 -438 73q-137 54 -305 212v7l14 7h33v6
l-93 126l7 14q-10 0 -20 19l-27 -6q-5 0 -159 6v20h159q0 17 -73 186q-26 163 -26 186v139q0 13 79 20v20q0 13 -66 20q0 9 -20 19l-40 -6q0 6 -6 6q0 12 26 113q139 7 192 7l7 13v20h-179v7q20 123 206 331q150 152 338 219l6 13h-13v13q114 27 186 27zM547 1047v-6h73
q6 0 6 -7l14 7h73q13 -2 13 -14q-10 -26 -20 -26h-46q-37 0 -93 -7q-13 7 -20 7q-53 -5 -53 -53q-15 0 -27 -67q60 -3 60 -26h53q13 -2 13 -13v-14q0 -19 -86 -26v-153q37 -180 133 -285q3 0 66 -59v-14h-139v-13l33 -7h113q35 0 212 -66l79 -6q37 0 179 39v14
q-139 145 -165 145q-47 0 -47 20q0 25 80 34q239 245 245 245h80l86 -80q20 0 20 133q0 71 -27 132l-13 -6q-60 0 -60 33h-73q-13 0 -13 13l13 7h60v26q-20 26 -20 40h7q127 7 166 7l6 13q-6 20 -40 20h-73q-14 0 -26 7q-12 -7 -27 -7h-33q-152 172 -278 199q0 10 -73 26
q-224 0 -352 -132q-21 0 -79 -80zM905 928h26v-20h-26q-13 0 -13 13zM998 928h79v-20h-79v20zM1157 928h73v-20h-73q-13 0 -13 13zM872 444h6v-7l-13 -20q7 -12 7 -20h-14q-13 0 -13 14v6q0 11 27 27zM931 444v-7l-13 -20q7 -12 7 -20h-13q-14 0 -14 14v13q0 15 33 20z
M229 192q2 -13 13 -13v13h-13zM248 179v-7q3 -13 14 -13h6q0 9 -20 20zM268 152v-13h14v13h-14z" />
    <glyph glyph-name="r" unicode="r" horiz-adv-x="1544" 
d="M169 1644q13 0 13 -7q102 7 150 7h474q258 0 346 -47q61 -18 75 -41q-7 -12 -7 -27q106 -51 183 -224q48 -144 48 -217q0 -25 -20 -163q40 0 40 -14q-77 -211 -244 -312l-102 -40v-7q16 -15 75 -109q-22 -13 -34 -13l7 -14v-7q-123 -6 -163 -6v-7q2 -14 14 -14h169
l61 -74q67 0 88 -68v-7q-34 0 -34 -14q211 -303 211 -312q-27 -5 -27 -13q47 -71 47 -82l-13 -6h-340q-57 0 -183 6q-54 77 -54 82q11 7 34 7v6q-197 299 -197 326h27v14q-21 67 -81 67q-53 68 -82 68h-122v-34q0 -6 -6 -6l6 -14v-312h75q14 -2 14 -14q0 -13 -14 -13h-75
q0 -34 -6 -34l6 -14v-81q0 -15 -6 -27q6 -13 6 -21l-13 -6h-278q-68 0 -204 6v163q2 14 14 14h74v20h-74q-14 0 -14 14v352l-34 7h-135q-14 0 -14 14l14 7q169 3 169 13q0 21 14 21q13 -7 20 -7l7 13v462q2 13 13 13h34l7 41q-13 7 -20 7q-60 -7 -68 -7q0 54 -54 54v34
l47 27v455l41 27v68q2 13 13 13h48q23 0 34 7zM528 1284q0 -6 -6 -6q6 -68 6 -102v-41q0 -7 -6 -7l6 -13v-7q0 -61 -54 -61v-41q54 -4 54 -20h-6q6 -13 6 -20h163v-14h-61l-27 -34h-34v-68h210q137 0 184 68q67 0 67 48h-61l-13 6q13 47 13 82v54q0 71 -122 156
q-15 14 -135 20l-14 -6l-14 6q-6 0 -6 -6q-24 6 -28 6q-59 -6 -67 -6q-38 6 -55 6zM142 959v-7h13v7h-13zM176 959v-7h13v7h-13zM1458 966h20v-14h-20v14zM1505 966h21v-14h-21v14zM1539 966h61v-14h-61v14zM549 430l-14 7q0 -14 -13 -14q6 -13 6 -20q68 6 102 6h7l13 -6
l28 47q-27 61 -34 61h-61q-14 0 -21 -81h-13zM345 403v-7q2 -14 14 -14h122q13 0 13 14v7h-149zM888 -106h13q0 -11 14 -27v-14q-9 1 -27 34v7zM935 -174h7v-14h-7v14z" />
    <glyph glyph-name="s" unicode="s" horiz-adv-x="1411" 
d="M672 1647q11 -7 26 -7h20q144 0 191 -33h39q20 0 171 -65h66q10 0 20 -20q-7 -7 -53 -7q119 -105 119 -118v-7q-3 -11 -251 -243h-92q-134 129 -204 138h-6q-132 0 -132 -53q-28 0 -33 -92l7 -33h59q22 0 59 -33q46 -9 46 -26l-6 -13l13 -7h158v-20h-132v-6
q2 -18 138 -66q261 -77 415 -211q0 -8 66 -79q-79 -6 -79 -19q15 0 20 -33h79q18 0 39 -79l-13 -7h-66q-13 -2 -13 -13h86q9 0 19 -20v-13q0 -13 -13 -13h-66v-7q0 -34 7 -112q0 -109 -79 -257q-13 -2 -13 -13v-13h92q13 -2 13 -13q-8 0 -85 -86q-172 -131 -468 -131h-6
q-363 0 -593 224q-171 11 -171 72q-63 57 -66 105q98 65 151 92l27 -6q19 5 191 112h79q11 0 72 -99v-13h-20v-13q112 -99 224 -99q171 28 171 165q0 21 -33 92h66v6q-17 33 -52 33h-66q-28 0 -73 7l-13 -7q-13 7 -20 7v13h7q18 0 132 7v13l-185 59q-20 0 -46 7
q-11 -7 -26 -7q-42 20 -119 40v13h47v13q-204 76 -277 204q-50 68 -59 151l13 7h26q7 0 7 -7q10 7 39 7v13h-85v13q33 0 33 13l-46 27q-10 26 -20 26h-73v53q0 206 191 362h20q7 0 7 -7l13 7l13 -7q40 7 40 20l-14 7h-39v6q85 49 85 59q0 19 158 33h99q15 0 27 7zM290 1028
v-13h6v13h-6zM309 1028v-13h20q0 13 -13 13h-7zM20 1028h13v-13h-13v13zM53 1028h19v-13h-19v13zM560 508h65v-20l-46 7h-19v13zM362 390v-14h7v14h-7z" />
    <glyph glyph-name="t" unicode="t" horiz-adv-x="1257" 
d="M166 1642h1125q15 0 27 -7q12 7 27 7q14 -17 14 -27l-7 -14q7 -35 27 -54v-256l-7 -13l-34 6h-141l-41 -6q-11 6 -33 6l-47 -6q-12 6 -27 6l-14 -6q-7 0 -7 6l-33 -6h-68v-236q0 -14 -54 -21q0 -26 -13 -26h-61q-13 -3 -13 -14q2 -13 13 -13h68l13 -7l-7 -34v-61l41 -27
q0 -13 -81 -20v-397q0 -19 -68 -27v-7h102q40 -18 40 -27v-533q0 -13 -13 -13h-270q-68 0 -202 7q-7 124 -7 182v364q-61 13 -61 27l-13 -7h-61v7q2 13 14 13l33 -7q13 7 21 7v405q2 13 13 13h61v27q-34 0 -34 13v88q0 14 -14 14h-60q-14 0 -14 13q2 14 14 14h60l27 33h34
l7 61q0 13 -7 13l7 34v108q0 29 -27 40q-7 0 -7 -6l-34 6h-390q-14 0 -14 14v256q-27 0 -27 13v7q0 15 7 27q-7 12 -7 27q7 0 7 7q145 7 216 7zM226 995h14q13 -3 13 -14q0 -13 -13 -13h-14q-13 0 -13 13q2 14 13 14zM415 462v-13h7v13h-7z" />
    <glyph glyph-name="u" unicode="u" horiz-adv-x="1661" 
d="M47 1641h459q14 -2 14 -13v-480h126q14 -2 14 -13v-7q-90 -7 -134 -7h-6v-46l-34 -27v-40q23 0 47 -33h80q13 -2 13 -14v-346q0 -13 -13 -13q-7 0 -7 6q-11 -6 -26 -6v-14q0 -15 6 -26q0 -60 -60 -60v-7l47 -6l27 6q26 0 40 -100q20 -15 20 -46l-27 -14q-36 7 -60 7h-7
q0 -65 153 -147q38 -20 147 -26q142 41 227 160q2 13 13 13h53q56 0 73 67l7 33v113q0 47 13 73q-13 0 -13 14v280l7 33q-29 20 -94 20q0 -7 -6 -7q0 36 -47 40v40l40 27q0 53 13 53h120v13q-90 7 -133 7v480q2 13 13 13h453q14 -2 14 -13v-467q2 -13 13 -13h113
q14 -2 14 -13q-34 -14 -120 -14h-14q0 -60 -39 -60v-53q33 0 33 -13l-7 -14l33 -6h67l20 -14l-7 -33v-493q0 -15 7 -26q-7 -67 -20 -67h-80q-22 0 -46 -120q-46 -127 -227 -273q13 -2 13 -13v-7q-219 -113 -406 -113q-28 0 -53 -7q-278 0 -500 100q-61 40 -120 47
q-180 124 -240 313l-13 66l13 7h74q9 0 20 20l-7 93q7 13 7 20l-20 14h-80q-14 0 -14 13l14 6h46v80l47 27q0 40 7 40l-7 47v120q0 24 7 60q-7 8 -7 46v14q0 6 7 6q0 18 -40 27q-13 -7 -20 -7v7l-14 -7h-26q-18 33 -27 33h-13v20l-7 34q40 0 40 73h133v13q-99 7 -133 7
l-7 13v467q2 13 14 13zM1312 695q0 -13 -13 -13v-7h13l7 13v7h-7z" />
    <glyph glyph-name="v" unicode="v" horiz-adv-x="1354" 
d="M-240 1641h506q11 0 41 -95l263 -796v-27h-21v-13q54 -4 54 -54h75q15 0 54 -142q52 -155 60 -155h7q0 8 27 108v20q-23 89 -34 115v6l14 21v13q0 14 -20 14q-13 -7 -21 -7v13q0 19 14 41q-27 0 -27 13v7q35 0 54 34h54q61 0 61 61v6q-68 7 -102 7h-20q-13 0 -13 14
q2 13 13 13h54l34 7v13q-24 7 -27 7q-13 -7 -20 -7v7l-14 -7h-7q-13 0 -13 14l182 560q63 184 74 189h513q14 -2 14 -14q-270 -734 -270 -742q7 0 7 -7l13 7q7 0 20 -7l41 7l7 -13q-17 -14 -21 -14h-67q-14 -2 -14 -13q2 -14 14 -14h108q13 0 13 -20q-23 -54 -33 -54h-68
q-27 0 -47 -34q-41 0 -41 -13q7 0 7 -7l14 7h6q14 -3 14 -14q-14 -2 -14 -13v-14l34 -27q-213 -634 -236 -634h-81q-41 0 -41 -54h129v-21h-95q-7 0 -61 -121h-6q-7 0 -7 7l-14 -7q-6 0 -6 7l-48 -7h-256q-15 0 -27 7q-12 -7 -27 -7q-57 0 -88 13l-40 -6h-7q-9 0 -47 101
q2 13 13 13h68q13 0 13 14q-91 7 -135 7q-16 0 -20 47q14 0 14 13l27 -6q85 6 94 13q-155 411 -202 567q-21 68 -75 68h-54q-29 54 -67 54v6q11 7 34 7q-176 503 -324 904q3 0 20 14zM-85 723h61q13 -2 13 -13l-13 -7h-61q-13 0 -13 13zM205 8q11 0 27 -48l-13 -6h-7
q-11 0 -20 47z" />
    <glyph glyph-name="w" unicode="w" horiz-adv-x="2342" 
d="M-161 1644h487q18 0 54 -176q14 -101 61 -101q27 0 27 -61q-10 -7 -41 -7l102 -413q23 -115 61 -115v-40q0 -14 -14 -14h-47l7 -47h74q14 0 14 13q-7 12 -7 27l14 7h60q0 6 14 54v7q-7 0 -20 7q101 343 128 467q17 54 34 54l14 -7q24 0 34 54q-16 14 -48 14v7
q75 252 75 270h473q18 0 61 -216q18 -68 68 -68q14 0 14 -34v-13q0 -14 -34 -14v-13q34 -158 142 -501q27 -9 27 -61l-14 -7h-47v-14q14 -16 14 -33h47l34 6l-7 34v7h41q40 0 40 54q-13 17 -13 20l95 352l108 420h7q-7 13 -7 20q18 61 27 61h27q14 -2 14 -13q22 13 40 13
h420q0 -47 -14 -47q0 -7 7 -7l-223 -805q13 -2 13 -14v-34q-7 -20 -40 -20l-34 7q-16 -54 -27 -54h-95q-14 -2 -14 -14q0 -13 75 -20v-14l-7 -13l14 -7h88l33 7l7 -14v-13q0 -14 -54 -21q0 -13 -27 -115l41 -13q-14 -29 -122 -440l-21 -14q-13 7 -20 7q0 -7 -7 -7l7 -13
q-28 -149 -40 -149l-28 -7l-13 7l-41 -7h-13q-7 0 -7 7l-14 -7h-297q-58 0 -88 13q-12 -6 -27 -6h-14q-20 0 -54 155h-20v14h40q0 32 -108 453h-34q-20 0 -41 122l14 7l13 -7l7 14v7q0 15 -74 20q-36 -7 -68 -7q-9 48 -47 48l-14 -7q-11 7 -34 7v13q2 14 14 14h74l14 6
l-7 34v7h61q0 47 -20 74q13 17 13 28l-7 13q28 66 28 95q-33 135 -48 135q-55 -192 -68 -284q14 -2 14 -14q0 -54 -88 -54q0 -40 -14 -40h-94q-14 -2 -14 -14v-13h61q14 -3 14 -14v-14l-7 -13h128q14 -2 14 -14v-6q0 -13 -61 -21q0 -40 -20 -115l34 -13l-149 -589
q0 -34 -27 -34l-34 7q-7 0 -21 -7q-67 7 -101 7l-61 -7q-13 7 -20 7q-27 -7 -48 -7q-13 0 -13 7l-41 -7q-47 0 -196 7l-95 331q7 14 7 21q-35 55 -81 270h-41q-8 0 -41 122q41 9 41 21q0 20 -142 20q-14 41 -34 41q-36 -7 -41 -7q-11 7 -27 7v13q2 14 14 14h74q14 0 14 13
v14l-7 13l14 7h47v27q0 24 -41 54l-128 494q2 14 13 14q13 -7 21 -7l6 14q0 12 -20 54h-34q-24 19 -81 271zM-175 1360h20q21 -7 21 -41q0 -13 -14 -13h-13q-14 0 -28 47zM1253 852v-13h7v13h-7zM1240 839v-14h7v14h-7zM427 663q7 -13 7 -20h81v13q0 14 -13 14h-61z
M1511 656q2 -13 13 -13h75v27h-75q-13 -2 -13 -14zM-128 670l7 -14v-13h-20v13q2 14 13 14zM522 643v-28q2 -13 14 -13h40l34 7v6q0 21 -54 28l-13 -7q-14 7 -21 7zM1619 643l-7 -14v-14q2 -13 14 -13h54q10 0 20 20q-27 21 -81 21zM671 595q0 -20 -34 -40q26 -116 48 -116
h13l34 129q27 0 27 14v13h-88zM1727 568q20 -129 54 -129q37 115 48 129q13 0 13 14v13h-67q-18 -27 -48 -27zM712 433q7 -10 7 -41q20 7 20 41v6h-14zM1802 426q2 -14 13 -14h7q0 8 7 21l-14 6q-13 -2 -13 -13z" />
    <glyph glyph-name="x" unicode="x" horiz-adv-x="1188" 
d="M-254 1641h521q21 -7 196 -291v-13h-41v-14h81q48 -42 48 -67q-14 -7 -21 -7v-7q54 -72 54 -88h34q41 -27 41 -54h13q20 4 20 48q-29 0 -60 74l60 68q208 333 230 351h521q13 -2 13 -13l-236 -352q-72 -61 -95 -108v-14q20 0 20 -13l-40 -68v-7h47q14 -2 14 -13l-14 -20
q48 0 48 -14l-14 -7h-68l-13 7q-45 -67 -68 -67q-34 -25 -135 -197q336 -512 480 -716v-7q0 -10 -34 -20q109 -166 115 -189q-12 -7 -61 -14v7l-13 -7h-257q-230 0 -230 34q0 12 -101 169q10 7 40 7v13l-121 189q-34 51 -34 75l34 54q-19 45 -41 61l-88 -129
q-80 -153 -135 -196q-13 7 -20 7t-7 -7q-7 0 -20 7q-70 -7 -109 -7h-13v-13h155q14 -2 14 -14q-16 -40 -54 -40q-45 0 -75 -82q-85 -127 -94 -128h-304q-55 0 -129 7l-13 -7q-54 7 -54 14l-14 -7h-7q-13 0 -13 13q125 190 142 190q53 0 67 40q-13 7 -20 7q-13 0 -149 7v6
q2 14 14 14q38 0 47 -7q37 7 61 7h74q214 336 440 656q-74 128 -129 196q2 13 14 13l-34 54l14 7h13q7 0 7 -7l13 7h14q7 0 7 -7q11 7 27 7v14h-61q-26 33 -54 33h-48q-54 88 -108 88q-28 49 -61 88q12 7 27 7v13q-27 61 -94 61l-14 -6q-37 6 -54 6v14h68v7q0 13 -189 284
q2 13 13 13zM395 1337v-14q14 0 14 14h-14zM57 1060h27q41 -5 41 -21v-6h-61q-10 0 -20 20zM388 783v-7h14v7h-14z" />
    <glyph glyph-name="y" unicode="y" horiz-adv-x="1317" 
d="M-178 1641h527q63 -69 169 -257q-14 -6 -74 -13v-7q0 -10 20 -20h27l48 6q36 -59 47 -60h88v-21h-74v-6q6 -14 6 -21q-16 -13 -27 -13l115 -196h14q33 67 33 74q-16 0 -40 61q35 68 88 68q24 33 54 40l34 -7l33 7v14h-60q-14 0 -14 13q0 6 216 338h521q13 -2 13 -13
q-162 -223 -223 -338h61q14 -2 14 -14l-14 -7h-74l-41 -40h-40q-352 -537 -352 -548h88q14 -2 14 -13q-25 -14 -54 -14h-34l-14 7l-7 -14v-189l41 -27v-47q0 -14 -13 -14h-142v-7q15 0 27 -6q6 0 6 6l34 -6h108q14 -2 14 -14v-493l27 -27q0 -14 -20 -14q-7 0 -7 7l-34 -7
h-304q-7 0 -7 7q-7 0 -7 -7q-82 9 -94 14q0 -7 -7 -7q0 4 -34 34v480q0 9 -20 20h-102l-40 7q-13 -7 -20 -7v7l-14 -7h-7q-13 0 -13 13l13 7h149q14 0 14 14v47q0 9 -48 27l7 47v129l-7 13l21 14h47q7 0 7 -7q33 9 33 20l-67 7h-34q-49 42 -372 548q12 7 27 7l-7 33h41l34 7
q0 14 -14 14h-74l-47 54h-75q-10 0 -27 27q81 7 81 20q-162 223 -162 250zM431 729v-7h13v7h-13zM289 681l6 -13l-13 -7l-7 13zM343 681h6v-20h-20v7q2 13 14 13z" />
    <glyph glyph-name="z" unicode="z" horiz-adv-x="1505" 
d="M169 1644h1395v-20h-74q-24 -11 -129 -224q48 0 48 -13q-165 -333 -224 -413q-66 0 -68 -7q-11 7 -27 7h-13q0 -4 13 -21v-7l-6 -13l47 -7q20 0 20 7l34 -7h102q13 -2 13 -13l-13 -7h-68q-24 0 -61 -7q-9 7 -47 7q-48 -61 -217 -400l13 -7h68q14 -2 14 -13
q-4 -20 -54 -20h-55l-40 -41h-88q-18 -27 -82 -27l41 -27q-79 -152 -95 -197h68l41 -6q6 0 6 6l48 -6q40 0 40 6l68 -6h332q47 0 149 6q19 -47 27 -47h81q14 -2 14 -14v-216l-7 -81q-67 -7 -1449 0h-20q-14 0 -14 13q112 200 149 291v7h-7l-61 7q-13 -7 -20 -7l-7 14
l122 223v20h-34v14h41l40 34h89q4 0 40 40h88q14 0 14 14q0 13 -14 13h-68l-13 7l210 393q112 7 169 7h14q13 0 13 13v7h-7q-67 0 -203 7v7q0 40 109 40l155 285v20h-555q-15 0 -27 7q-7 0 -7 -7l-47 7h-48q-13 0 -13 13v82l7 13q-61 0 -61 27l6 41l-6 41l6 40l-6 68l13 7
h61zM108 1421v-14h7v14h-7zM34 1387h13v-88h-13v88zM183 1346v-14q13 0 13 -13h7v13zM372 974h61v-14h-61v14zM528 974h14v-14h-14v14z" />
    <glyph glyph-name="braceleft" unicode="{" 
 />
    <glyph glyph-name="bar" unicode="|" 
 />
    <glyph glyph-name="braceright" unicode="}" 
 />
    <glyph glyph-name="asciitilde" unicode="~" 
 />
    <glyph glyph-name="exclamdown" unicode="&#xa1;" horiz-adv-x="613" 
d="M514 -188h-98q-6 0 -6 7l-13 -7h-326q-14 11 -59 19q0 117 39 117h13q13 185 12 359q17 13 33 13v39q-26 3 -26 20v6q0 13 13 13h58q13 3 13 14v6h-65q-13 2 -13 13v65h-33l-13 7q0 93 19 489q-7 0 -7 6q17 13 20 13l176 1q55 0 176 -7l6 -13q14 -344 15 -482
q52 0 52 -85l13 -6h59q13 0 13 -13l-13 -7h-59q-13 0 -13 -13v-6q39 -23 39 -59q-32 -7 -32 -13q0 -56 7 -359l-13 -6h-7l-13 6l-6 -13v-98q0 -13 39 -13v-13zM192 1227q-120 -1 -183 130q0 8 39 19q0 10 13 26q-26 10 -26 20v45q59 177 195 177q182 0 222 -39
q91 -81 91 -195h13l1 -20q-76 -24 -85 -39q0 -53 -104 -105l-20 -13h-39q-56 0 -117 -6z" />
    <glyph glyph-name="cent" unicode="&#xa2;" horiz-adv-x="1139" 
 />
    <glyph glyph-name="sterling" unicode="&#xa3;" 
 />
    <glyph glyph-name="currency" unicode="&#xa4;" 
 />
    <glyph glyph-name="yen" unicode="&#xa5;" horiz-adv-x="1262" 
 />
    <glyph glyph-name="brokenbar" unicode="&#xa6;" 
 />
    <glyph glyph-name="section" unicode="&#xa7;" 
 />
    <glyph glyph-name="dieresis" unicode="&#xa8;" horiz-adv-x="1024" 
 />
    <glyph glyph-name="copyright" unicode="&#xa9;" horiz-adv-x="2758" 
d="M88 1417h139q156 0 231 -115q29 0 37 -27q14 -31 14 -65q6 7 23 75q28 57 58 57q14 0 14 7q-24 0 -24 10q24 27 75 38q42 20 108 20h7q47 0 95 -20v-4l-4 -7q60 -37 75 -37h17v-7h-20q54 -71 54 -112v-3h-41v-3q20 0 24 -4q6 4 14 4q6 0 6 -21q17 0 17 7q0 37 27 88
q-5 4 -20 4q8 37 61 71h4v3h-34v4q36 36 122 37h10q75 0 142 -37q60 0 85 -44q27 -22 27 -41q-71 -44 -88 -44h-13q-57 71 -109 71q-10 0 -58 -17v-3q14 0 14 -7q-43 -41 -51 -88q-37 -4 -37 -11q40 0 40 -23q0 -34 31 -82h-17q0 -18 78 -37q102 22 102 41q-14 0 -14 3
q4 11 21 27h13q65 -30 82 -30q27 -7 27 -14v-3q0 -4 -27 -14q-11 -27 -44 -27q-7 -1 -7 -7q20 0 20 -7q-76 -64 -149 -64h-34q-97 0 -173 71h-24v7h17v3q-27 36 -27 45h-3q0 -11 -7 -11h-31q-7 -6 -27 -6v-4h14v-7q-68 -98 -194 -98q-131 0 -210 105h-3v4q0 6 33 6
q-27 55 -27 92l7 3h58v7h-61l-14 10h-24v7h11v3q0 4 -14 11l-7 -4h-20q0 -10 -7 -10h-17v-13h17q7 0 7 -11q0 -35 -31 -98h31v-7h-34q-27 -30 -31 -30h-37l-17 -4v-7h44v-6q-77 -58 -142 -58h-180q-7 0 -7 7v57h-41q-6 0 -6 7v4h47v23q0 7 34 7v4q-34 2 -34 10v95l-24 13
q26 16 51 21v91q-27 4 -27 10v102q1 7 7 7zM1438 1417h339q7 0 14 -34v-47q0 -7 -7 -7h-105v-58q-10 -17 -37 -17l24 -13q0 -14 3 -28q-6 -3 -14 -3v-98q0 -7 -10 -7v-4q27 0 27 -10v-125q0 -7 -6 -7h-109q-10 0 -10 54v82q-17 2 -17 10v102q0 6 20 6v7q-10 0 -10 7v20h-17
v7q12 0 27 10h4v58q0 7 -7 7h-102q-7 0 -7 7v57l-7 10v7q1 7 7 7zM2012 1417h6q48 0 95 -20v-4l-3 -7q59 -37 75 -37h17v-7h-21q54 -71 54 -112v-3h-40v-3q19 0 23 -4q6 4 14 4q7 0 10 -38h21v44q0 7 13 7v10h-17q-3 0 -17 17l10 14v108q0 7 11 7v17q1 7 6 7h187
q95 0 95 -27q58 -41 58 -112q-4 -35 -4 -41h7v-3q0 -44 -78 -85h-7l17 -27v-7q-7 0 -7 -7h-37v-7h41q41 -28 41 -33q-7 -1 -7 -7l51 -75q-7 -1 -7 -7q10 -3 10 -20h-129q-12 6 -17 20l7 4l-48 78q7 0 7 7q0 12 -47 33h-24v-91h20v-7h-20v-37q0 -7 -7 -7h-112q-7 0 -7 7v30
q1 7 7 7h17v7h-17q-7 0 -7 7v68h-3q0 -11 -7 -11h-30q-7 -6 -27 -6v-4h13v-7q-68 -98 -193 -98q-132 0 -211 105h-3v4q0 6 34 6q-27 55 -27 92l7 3h57v7h-61l-13 10h-24v7h10v3q0 7 -14 7q28 139 79 139q13 0 13 7q-24 0 -24 10q24 27 75 38q43 20 109 20zM2378 1329v-51
q0 -10 -14 -10v-10q14 0 14 -11h24v-3q0 -7 -14 -7v-17h58q24 0 57 27q-15 0 -20 4l4 7v27q0 28 -45 44h-64zM203 1319v-17h21q6 -1 6 -7v-85q-30 -17 -47 -17v-13h17l7 -4l-4 -24v-40l4 -21q-4 -6 -4 -10q4 -6 4 -10h30v-7h-30q0 -7 -4 -13l7 -4h24l78 17h24v4l-17 3h-11v7
q51 36 51 102h-17q-6 0 -6 6l30 17h20v4q-21 95 -74 95q-48 23 -75 23h-27q-7 -1 -7 -6zM634 1207q5 0 10 -11q-6 -3 -10 -3v-7h24l13 -10h58v-7q-3 0 -3 4l-7 -4h-51q0 -47 58 -88v-7h-21q-4 0 -10 -10q23 0 58 -7q11 0 61 17q56 0 78 51q9 0 14 51v10h-28q-10 0 -10 34
h-57v7h54q-39 92 -109 92q-81 0 -118 -95zM1883 1207q5 0 10 -11q-7 -3 -10 -3v-7h23l14 -10h58v-7q-4 0 -4 4l-7 -4h-50q0 -47 57 -88v-7h-20q-5 0 -10 -10q23 0 57 -7q12 0 61 17q56 0 78 51q10 0 14 51v10h-27q-10 0 -10 34h-58v7h54q-38 92 -108 92q-82 0 -119 -95z
M74 1302q7 -1 7 -7q0 -7 -7 -7q-6 0 -6 7q1 7 6 7zM1499 1254h7v-7h-7v7zM319 1203h10q7 -1 7 -7l-7 -3h-10q-7 0 -7 7zM990 1193q1 -7 7 -7h7v7h-14zM44 1193q7 -1 7 -7t-7 -6t-7 6q1 7 7 7zM1062 1186v-3h6v3h-6zM522 1176h17v-7h-17v7zM1771 1176h17v-7h-17v7zM719 1142
h10v-3q0 -7 -7 -7l-3 7v3zM1967 1142h11v-3q0 -7 -7 -7l-4 7v3zM2378 1115v-7h27q3 0 10 10q-7 11 -7 17h-13l-14 -20h-3zM532 1125h4q7 -1 7 -7l-7 -3h-4q-6 0 -6 7zM1781 1125h3q7 -1 7 -7l-7 -3h-3q-7 0 -7 7zM1014 1118q0 -5 -7 -27h21q-10 19 -10 27h-4zM2334 1108v-7
h34v7h-34zM1238 1095h10q7 -1 7 -7q-20 -17 -34 -17h-7v7q6 0 24 17zM420 867q51 0 120 -28v-8h-12q43 -28 92 -88q20 -1 20 -12q-43 -35 -120 -64h-8q-4 0 -52 56l4 8q-18 12 -76 20h-16q-42 0 -112 -60h-12v-8h60v-8h-52q-20 -54 -20 -80q4 -48 12 -64l-8 -4h-44
q44 -76 84 -76h28q75 -12 80 -12q72 12 100 40q32 37 32 48h-148q-8 0 -8 8v48q8 10 8 16l-4 20h184q34 0 108 4l12 -20v-4q-16 -17 -16 -64v-4h8v-4q0 -56 -52 -84q-81 -116 -216 -116h-28q-141 0 -236 124h-48q-32 44 -32 68q1 8 8 8h44q-8 41 -8 72q0 68 20 76h44v8h-52
v8q8 0 44 72q58 72 116 72q49 32 152 32zM688 867h132q5 0 20 -32v-36q0 -6 -16 -16h-20v-12q24 0 24 -8v-204q12 0 12 -8v-112q1 -8 8 -8h168q8 -1 8 -8v-60q0 -8 -8 -8h-4q-4 0 -4 4q-8 -4 -12 -4v-4q28 0 28 -8v-8q0 -8 -8 -8h-312q-5 0 -16 28q8 0 8 8v184l-16 16v208
h-16v8q8 0 32 12v44l-16 16v8q1 8 8 8zM1060 867h132q8 0 8 -24h16q0 24 8 24h400q8 0 16 -40v-60q45 48 60 48v4h-40v4q43 43 144 44h12q89 0 168 -44q70 0 100 -52q32 -25 32 -48q-84 -52 -104 -52h-16q-67 84 -128 84q-12 0 -68 -20v-4q16 0 16 -8q-50 -48 -60 -104
q-44 -4 -44 -12q48 0 48 -28q0 -40 36 -96h-20q0 -21 92 -44q120 25 120 48q-16 0 -16 4q4 13 24 32h16q76 -36 96 -36q32 -8 32 -16v-4q0 -5 -32 -16q-13 -32 -52 -32q-8 -1 -8 -8q24 0 24 -8q-90 -76 -176 -76h-40q-114 0 -204 84h-28v8h20v4q-26 35 -36 56q4 4 32 4
q-19 47 -32 108l4 8v4h-32q-8 0 -8 8q44 5 44 12q0 44 32 104q-6 4 -24 4q0 13 12 28v4h-128v-68q-11 -20 -44 -20l28 -16q0 -16 4 -32q-7 -4 -16 -4v-116q0 -8 -12 -8v-4q32 0 32 -12v-148q0 -8 -8 -8h-128q-12 0 -12 64v96q-20 3 -20 12v120q0 8 24 8v8q-12 0 -12 8v24
h-20v8q14 0 32 12h4v68q0 8 -8 8h-120q-8 0 -8 8v64h-24v-240h20q8 -1 8 -8q0 -8 -8 -8h-52v-16h40q8 -1 8 -8v-140q0 -8 -16 -8v-64q16 0 16 -8t-8 -8h-132q-19 24 -24 24l4 8v40l-20 20q1 8 8 8h4q8 0 8 -20h12v156h-40q-8 0 -8 8q1 8 8 8h52v8l-28 16v228q0 4 -4 4
q4 32 12 32zM2160 867h132q8 -1 8 -8v-140q0 -8 -8 -8h-20v-8q1 -8 8 -8h20v-4l-4 -8q16 -5 16 -36h192v24q-16 12 -16 24h-56q-8 0 -8 8l8 4h56v152q1 8 8 8h128q8 -1 8 -8v-148h-20l-24 -4q-7 4 -20 4v-16h64q0 -15 16 -24v-136h20q8 -1 8 -8v-4q0 -8 -8 -8h-20v-40
q0 -8 -16 -8v-140h-136q-8 0 -8 8v128q0 8 16 8v36l24 16v4q0 5 -32 16h-184v-72h32q8 -1 8 -8q0 -8 -8 -8h-52q-8 -1 -8 -8v-112q0 -8 -8 -8h-128q-8 0 -8 8v112q1 8 8 8h48q8 0 8 8v8h-32q-8 0 -8 8v192q-12 13 -12 24h-20q-8 0 -8 8q28 5 28 12v108q0 4 4 4l-4 8v24
q1 8 8 8zM1068 843v-8h8v8h-8zM80 691h4v-8h-4v8zM1296 675h8v-8h-8v8zM336 623h8q8 -1 8 -8v-4h-16q-8 0 -8 8zM308 619h8v-8h-8v8zM1680 595v-4h8v4h-8zM2468 535h12q8 -1 8 -8q0 -8 -8 -8h-12q-8 0 -8 8q1 8 8 8zM1888 487h12q8 -1 8 -8q-23 -20 -40 -20h-8v8q7 0 28 20z
M94 280h55q4 0 17 -38q3 0 3 -3l-3 -14q13 -50 20 -61l-7 -10h7l14 10q0 3 -4 3q14 69 28 69v3q0 7 -7 7q9 34 17 34h51q5 0 17 -38h4v-6q0 -4 -4 -4q17 -60 24 -68l-7 -10h4q14 0 24 61q17 65 24 65h54l7 -3q-14 -54 -31 -110q4 0 4 -3q-15 -10 -28 -10v-4q16 -7 24 -7v-3
q0 -2 -7 -10q0 -2 4 -14q-17 -64 -31 -75h-61q-6 0 -24 79l-11 23l-20 4v7q9 0 17 7l-3 6q3 19 3 28l-7 3q-3 -25 -7 -31q4 0 4 -3q-13 -10 -27 -10v-4q15 -7 23 -7v-6h-6q0 -12 3 -17q-17 -79 -24 -79h-65q-6 0 -27 82q-5 0 -10 20l-21 4v7l17 7q-10 12 -24 71q7 0 7 7
q-12 0 -17 38zM545 280q36 0 75 -34q37 -26 37 -85q7 3 11 3q0 7 -7 7q12 68 44 68v3h-7v7q0 18 96 31q40 0 92 -48q21 -37 21 -54v-14h3q20 3 20 10v38q0 7 -13 7v54q1 7 7 7h58q89 0 129 -61q28 -9 28 -48h3q10 40 10 48q-6 0 -6 6q22 28 30 28v3h-10v4q16 20 61 20
q28 0 86 -20q19 0 48 -38v-7q0 -9 -48 -24q-38 38 -58 38q-26 -7 -28 -7l4 -7q-21 -21 -27 -48h-17v-3q22 0 27 -41q3 0 3 -14h-3v-3q30 -14 37 -14q52 8 52 17q-4 7 -4 11q11 10 17 10q34 -17 58 -24q0 7 14 7q-7 22 -7 30l7 4l-3 17q0 8 3 14q0 6 -21 23q2 7 7 7l-3 17v48
q1 7 7 7h51q7 -1 7 -7v-54q0 -4 3 -4l-7 -17q17 -4 17 -10v-31q0 -15 -6 -27q5 0 10 -10v-4q0 -7 -10 -7q13 -20 34 -20q8 0 51 31v71q-11 0 -17 4l3 24v54q1 7 7 7h536q7 -1 7 -7v-27h7q1 29 13 34h86q82 -5 82 -58q3 0 3 -14v-24q-12 -44 -41 -44q7 -11 7 -20h-20v-4
q29 0 41 -17q0 -3 -4 -3q27 -43 27 -52l-6 -3h-58q-5 0 -11 10l4 7q-20 18 -28 48q-5 0 -17 10l4 7v3q0 7 -7 7h-3q0 -10 -7 -10q0 -3 3 -3l-3 -18v-30q0 -4 3 -4q-3 -27 -10 -27h-51q-7 0 -7 7v10q0 7 10 7v3q-5 0 -14 7h-3v-27q0 -7 -7 -7h-143q-7 0 -7 7v20h-10v7h24v4
h-11l4 17q-6 0 -10 34l3 7v24l-7 10l7 3q1 -7 7 -7h13v55q-10 0 -10 10h-51v-27q0 -10 -17 -10v-4q10 0 14 -17q-7 -3 -11 -3v-55q11 0 11 -7v-61q0 -7 -7 -7h-51q-7 0 -7 7v65h-14l3 17v37q0 7 11 7q-7 14 -7 21q5 0 10 10v27h-99v-27q0 -10 -17 -10v-4q10 0 14 -17
q-7 -1 -7 -7v-44l-4 -7q11 0 11 -7v-61q0 -7 -7 -7h-51q-7 0 -7 7v65h-10l3 17v37q1 7 7 7l-7 21q5 0 10 10v27h-58v-13q0 -4 4 -4l-11 -17q21 -4 21 -10v-72q-16 -9 -31 -41q-29 -34 -75 -34q-89 0 -113 61q-5 0 -30 -20h-11v-3h7v-4q-31 -34 -82 -34h-3q-76 0 -113 61v11
h10q-10 44 -17 44q-5 4 -17 4h-7v-4q14 0 14 -7q-12 -61 -27 -61q0 -10 -34 -10v-4h20v-7q-42 -27 -78 -27h-82q-7 0 -7 7v27h-24v7h24q0 14 10 14v3q-10 0 -10 10h-4q0 -11 -27 -13q-29 -55 -96 -55q-77 0 -112 58v3h13q-10 31 -10 41q0 7 31 7v4q-34 0 -34 -4
q-6 -51 -31 -51q-4 0 -41 -38q-28 -20 -68 -20q-73 0 -109 58v3q13 0 13 4q-7 11 -13 41q0 3 34 3v4q-27 0 -48 3v4l3 6q-7 0 -7 7q14 65 41 65h4v3h-7v7q34 31 96 31zM2361 280h140q7 -1 7 -7v-27q14 0 14 -7l-11 -7h-85v-3l14 -14v-31h75v-20h-17v-21q0 -6 -7 -6h-62
l-17 -4q5 -4 10 -41l7 -3h72q2 0 10 -7q-3 -41 -10 -41h-140q-7 0 -7 7v20h-10q0 -27 -27 -27h-11q-27 0 -27 34q21 21 34 21h7q24 0 24 -21h24v4q-14 0 -14 6q7 0 7 7q-6 8 -10 38l3 7v24l-7 10l17 -4h11v55q-14 0 -14 7v3l7 10q-14 0 -14 7v24q1 7 7 7zM2597 280h6
q76 -13 76 -34q-26 -34 -45 -34q-21 20 -34 20q-14 -5 -14 -10v-14q13 0 38 -20q65 -24 65 -38q-7 -1 -7 -7q17 -1 17 -10v-3l-14 -41q0 -9 -6 -17h10v-4q-14 -27 -72 -27q-35 0 -78 31q-19 0 -24 17v3q2 8 54 31q15 -31 34 -31h11q5 0 13 14v3l-3 17q3 0 3 4q-92 24 -92 68
q4 0 4 3q-17 8 -17 18q16 61 75 61zM91 242v-6h-7q1 6 7 6zM1982 232v-10q10 0 10 -7v-31h72q7 -1 7 -6v-7q0 -7 -21 -7v-21q0 -6 -6 -6h-55l-24 -4v-3q14 0 14 -41h78q7 0 7 -10h7v34l-4 7q7 3 11 3v51l3 17q-8 0 -14 4l4 24v13h-89zM2136 232v-24l-7 -10q17 -8 17 -10
q-3 -7 -3 -10h37q17 9 17 13q-6 0 -10 31q-13 10 -24 10h-27zM982 229v-10q13 0 13 -7v-38q0 -7 -27 -13v-4q14 0 14 -7v-48q0 -3 3 -3l-3 -7v-3h20q24 7 41 7v3h-7v3q24 32 24 52h-10v10l24 3q0 47 -68 62h-24zM476 174v-13q13 0 21 -7l-4 -7q0 -17 28 -45q-7 -3 -11 -3v-3
l31 -4q0 7 48 14q24 23 24 48v3q-17 0 -17 17h-27v7h23v3q-22 41 -51 41h-7q-58 -12 -58 -51zM726 171q0 -7 20 -17l-3 -7q0 -17 27 -45q-7 -3 -10 -3v-3q12 0 30 -4q0 7 48 14q25 23 28 51q-21 0 -21 17h-27v7h24v3q-20 41 -52 41h-6q-58 -12 -58 -54zM1040 167h7v-6h-7v6z
M166 154v-4h10v4h-10zM306 154v-4h6v4h-6zM176 147v-4h10v4h-10zM319 147v-4h7v4h-7zM193 137v-7q1 -7 7 -7q0 13 7 20h-7q-7 -1 -7 -6zM333 133q3 -6 3 -10h4q0 9 7 20h-7q-7 0 -7 -10zM422 130h3v-7h-3v7zM2115 120v-4h14v4h-14zM1265 113h3v-4q0 -5 -10 -10h-7v7
q6 0 14 7zM2030 75v-3h14v3h-14zM2477 75v-3h10v3h-10z" />
    <glyph glyph-name="ordfeminine" unicode="&#xaa;" horiz-adv-x="648" 
 />
    <glyph glyph-name="guillemotleft" unicode="&#xab;" horiz-adv-x="944" 
 />
    <glyph glyph-name="logicalnot" unicode="&#xac;" 
 />
    <glyph glyph-name="registered" unicode="&#xae;" horiz-adv-x="2758" 
d="M88 1417h139q156 0 231 -115q29 0 37 -27q14 -31 14 -65q6 7 23 75q28 57 58 57q14 0 14 7q-24 0 -24 10q24 27 75 38q42 20 108 20h7q47 0 95 -20v-4l-4 -7q60 -37 75 -37h17v-7h-20q54 -71 54 -112v-3h-41v-3q20 0 24 -4q6 4 14 4q6 0 6 -21q17 0 17 7q0 37 27 88
q-5 4 -20 4q8 37 61 71h4v3h-34v4q36 36 122 37h10q75 0 142 -37q60 0 85 -44q27 -22 27 -41q-71 -44 -88 -44h-13q-57 71 -109 71q-10 0 -58 -17v-3q14 0 14 -7q-43 -41 -51 -88q-37 -4 -37 -11q40 0 40 -23q0 -34 31 -82h-17q0 -18 78 -37q102 22 102 41q-14 0 -14 3
q4 11 21 27h13q65 -30 82 -30q27 -7 27 -14v-3q0 -4 -27 -14q-11 -27 -44 -27q-7 -1 -7 -7q20 0 20 -7q-76 -64 -149 -64h-34q-97 0 -173 71h-24v7h17v3q-27 36 -27 45h-3q0 -11 -7 -11h-31q-7 -6 -27 -6v-4h14v-7q-68 -98 -194 -98q-131 0 -210 105h-3v4q0 6 33 6
q-27 55 -27 92l7 3h58v7h-61l-14 10h-24v7h11v3q0 4 -14 11l-7 -4h-20q0 -10 -7 -10h-17v-13h17q7 0 7 -11q0 -35 -31 -98h31v-7h-34q-27 -30 -31 -30h-37l-17 -4v-7h44v-6q-77 -58 -142 -58h-180q-7 0 -7 7v57h-41q-6 0 -6 7v4h47v23q0 7 34 7v4q-34 2 -34 10v95l-24 13
q26 16 51 21v91q-27 4 -27 10v102q1 7 7 7zM1438 1417h339q7 0 14 -34v-47q0 -7 -7 -7h-105v-58q-10 -17 -37 -17l24 -13q0 -14 3 -28q-6 -3 -14 -3v-98q0 -7 -10 -7v-4q27 0 27 -10v-125q0 -7 -6 -7h-109q-10 0 -10 54v82q-17 2 -17 10v102q0 6 20 6v7q-10 0 -10 7v20h-17
v7q12 0 27 10h4v58q0 7 -7 7h-102q-7 0 -7 7v57l-7 10v7q1 7 7 7zM2012 1417h6q48 0 95 -20v-4l-3 -7q59 -37 75 -37h17v-7h-21q54 -71 54 -112v-3h-40v-3q19 0 23 -4q6 4 14 4q7 0 10 -38h21v44q0 7 13 7v10h-17q-3 0 -17 17l10 14v108q0 7 11 7v17q1 7 6 7h187
q95 0 95 -27q58 -41 58 -112q-4 -35 -4 -41h7v-3q0 -44 -78 -85h-7l17 -27v-7q-7 0 -7 -7h-37v-7h41q41 -28 41 -33q-7 -1 -7 -7l51 -75q-7 -1 -7 -7q10 -3 10 -20h-129q-12 6 -17 20l7 4l-48 78q7 0 7 7q0 12 -47 33h-24v-91h20v-7h-20v-37q0 -7 -7 -7h-112q-7 0 -7 7v30
q1 7 7 7h17v7h-17q-7 0 -7 7v68h-3q0 -11 -7 -11h-30q-7 -6 -27 -6v-4h13v-7q-68 -98 -193 -98q-132 0 -211 105h-3v4q0 6 34 6q-27 55 -27 92l7 3h57v7h-61l-13 10h-24v7h10v3q0 7 -14 7q28 139 79 139q13 0 13 7q-24 0 -24 10q24 27 75 38q43 20 109 20zM2378 1329v-51
q0 -10 -14 -10v-10q14 0 14 -11h24v-3q0 -7 -14 -7v-17h58q24 0 57 27q-15 0 -20 4l4 7v27q0 28 -45 44h-64zM203 1319v-17h21q6 -1 6 -7v-85q-30 -17 -47 -17v-13h17l7 -4l-4 -24v-40l4 -21q-4 -6 -4 -10q4 -6 4 -10h30v-7h-30q0 -7 -4 -13l7 -4h24l78 17h24v4l-17 3h-11v7
q51 36 51 102h-17q-6 0 -6 6l30 17h20v4q-21 95 -74 95q-48 23 -75 23h-27q-7 -1 -7 -6zM634 1207q5 0 10 -11q-6 -3 -10 -3v-7h24l13 -10h58v-7q-3 0 -3 4l-7 -4h-51q0 -47 58 -88v-7h-21q-4 0 -10 -10q23 0 58 -7q11 0 61 17q56 0 78 51q9 0 14 51v10h-28q-10 0 -10 34
h-57v7h54q-39 92 -109 92q-81 0 -118 -95zM1883 1207q5 0 10 -11q-7 -3 -10 -3v-7h23l14 -10h58v-7q-4 0 -4 4l-7 -4h-50q0 -47 57 -88v-7h-20q-5 0 -10 -10q23 0 57 -7q12 0 61 17q56 0 78 51q10 0 14 51v10h-27q-10 0 -10 34h-58v7h54q-38 92 -108 92q-82 0 -119 -95z
M74 1302q7 -1 7 -7q0 -7 -7 -7q-6 0 -6 7q1 7 6 7zM1499 1254h7v-7h-7v7zM319 1203h10q7 -1 7 -7l-7 -3h-10q-7 0 -7 7zM990 1193q1 -7 7 -7h7v7h-14zM44 1193q7 -1 7 -7t-7 -6t-7 6q1 7 7 7zM1062 1186v-3h6v3h-6zM522 1176h17v-7h-17v7zM1771 1176h17v-7h-17v7zM719 1142
h10v-3q0 -7 -7 -7l-3 7v3zM1967 1142h11v-3q0 -7 -7 -7l-4 7v3zM2378 1115v-7h27q3 0 10 10q-7 11 -7 17h-13l-14 -20h-3zM532 1125h4q7 -1 7 -7l-7 -3h-4q-6 0 -6 7zM1781 1125h3q7 -1 7 -7l-7 -3h-3q-7 0 -7 7zM1014 1118q0 -5 -7 -27h21q-10 19 -10 27h-4zM2334 1108v-7
h34v7h-34zM1238 1095h10q7 -1 7 -7q-20 -17 -34 -17h-7v7q6 0 24 17zM420 867q51 0 120 -28v-8h-12q43 -28 92 -88q20 -1 20 -12q-43 -35 -120 -64h-8q-4 0 -52 56l4 8q-18 12 -76 20h-16q-42 0 -112 -60h-12v-8h60v-8h-52q-20 -54 -20 -80q4 -48 12 -64l-8 -4h-44
q44 -76 84 -76h28q75 -12 80 -12q72 12 100 40q32 37 32 48h-148q-8 0 -8 8v48q8 10 8 16l-4 20h184q34 0 108 4l12 -20v-4q-16 -17 -16 -64v-4h8v-4q0 -56 -52 -84q-81 -116 -216 -116h-28q-141 0 -236 124h-48q-32 44 -32 68q1 8 8 8h44q-8 41 -8 72q0 68 20 76h44v8h-52
v8q8 0 44 72q58 72 116 72q49 32 152 32zM688 867h132q5 0 20 -32v-36q0 -6 -16 -16h-20v-12q24 0 24 -8v-204q12 0 12 -8v-112q1 -8 8 -8h168q8 -1 8 -8v-60q0 -8 -8 -8h-4q-4 0 -4 4q-8 -4 -12 -4v-4q28 0 28 -8v-8q0 -8 -8 -8h-312q-5 0 -16 28q8 0 8 8v184l-16 16v208
h-16v8q8 0 32 12v44l-16 16v8q1 8 8 8zM1060 867h132q8 0 8 -24h16q0 24 8 24h400q8 0 16 -40v-60q45 48 60 48v4h-40v4q43 43 144 44h12q89 0 168 -44q70 0 100 -52q32 -25 32 -48q-84 -52 -104 -52h-16q-67 84 -128 84q-12 0 -68 -20v-4q16 0 16 -8q-50 -48 -60 -104
q-44 -4 -44 -12q48 0 48 -28q0 -40 36 -96h-20q0 -21 92 -44q120 25 120 48q-16 0 -16 4q4 13 24 32h16q76 -36 96 -36q32 -8 32 -16v-4q0 -5 -32 -16q-13 -32 -52 -32q-8 -1 -8 -8q24 0 24 -8q-90 -76 -176 -76h-40q-114 0 -204 84h-28v8h20v4q-26 35 -36 56q4 4 32 4
q-19 47 -32 108l4 8v4h-32q-8 0 -8 8q44 5 44 12q0 44 32 104q-6 4 -24 4q0 13 12 28v4h-128v-68q-11 -20 -44 -20l28 -16q0 -16 4 -32q-7 -4 -16 -4v-116q0 -8 -12 -8v-4q32 0 32 -12v-148q0 -8 -8 -8h-128q-12 0 -12 64v96q-20 3 -20 12v120q0 8 24 8v8q-12 0 -12 8v24
h-20v8q14 0 32 12h4v68q0 8 -8 8h-120q-8 0 -8 8v64h-24v-240h20q8 -1 8 -8q0 -8 -8 -8h-52v-16h40q8 -1 8 -8v-140q0 -8 -16 -8v-64q16 0 16 -8t-8 -8h-132q-19 24 -24 24l4 8v40l-20 20q1 8 8 8h4q8 0 8 -20h12v156h-40q-8 0 -8 8q1 8 8 8h52v8l-28 16v228q0 4 -4 4
q4 32 12 32zM2160 867h132q8 -1 8 -8v-140q0 -8 -8 -8h-20v-8q1 -8 8 -8h20v-4l-4 -8q16 -5 16 -36h192v24q-16 12 -16 24h-56q-8 0 -8 8l8 4h56v152q1 8 8 8h128q8 -1 8 -8v-148h-20l-24 -4q-7 4 -20 4v-16h64q0 -15 16 -24v-136h20q8 -1 8 -8v-4q0 -8 -8 -8h-20v-40
q0 -8 -16 -8v-140h-136q-8 0 -8 8v128q0 8 16 8v36l24 16v4q0 5 -32 16h-184v-72h32q8 -1 8 -8q0 -8 -8 -8h-52q-8 -1 -8 -8v-112q0 -8 -8 -8h-128q-8 0 -8 8v112q1 8 8 8h48q8 0 8 8v8h-32q-8 0 -8 8v192q-12 13 -12 24h-20q-8 0 -8 8q28 5 28 12v108q0 4 4 4l-4 8v24
q1 8 8 8zM1068 843v-8h8v8h-8zM80 691h4v-8h-4v8zM1296 675h8v-8h-8v8zM336 623h8q8 -1 8 -8v-4h-16q-8 0 -8 8zM308 619h8v-8h-8v8zM1680 595v-4h8v4h-8zM2468 535h12q8 -1 8 -8q0 -8 -8 -8h-12q-8 0 -8 8q1 8 8 8zM1888 487h12q8 -1 8 -8q-23 -20 -40 -20h-8v8q7 0 28 20z
M94 280h55q4 0 17 -38q3 0 3 -3l-3 -14q13 -50 20 -61l-7 -10h7l14 10q0 3 -4 3q14 69 28 69v3q0 7 -7 7q9 34 17 34h51q5 0 17 -38h4v-6q0 -4 -4 -4q17 -60 24 -68l-7 -10h4q14 0 24 61q17 65 24 65h54l7 -3q-14 -54 -31 -110q4 0 4 -3q-15 -10 -28 -10v-4q16 -7 24 -7v-3
q0 -2 -7 -10q0 -2 4 -14q-17 -64 -31 -75h-61q-6 0 -24 79l-11 23l-20 4v7q9 0 17 7l-3 6q3 19 3 28l-7 3q-3 -25 -7 -31q4 0 4 -3q-13 -10 -27 -10v-4q15 -7 23 -7v-6h-6q0 -12 3 -17q-17 -79 -24 -79h-65q-6 0 -27 82q-5 0 -10 20l-21 4v7l17 7q-10 12 -24 71q7 0 7 7
q-12 0 -17 38zM545 280q36 0 75 -34q37 -26 37 -85q7 3 11 3q0 7 -7 7q12 68 44 68v3h-7v7q0 18 96 31q40 0 92 -48q21 -37 21 -54v-14h3q20 3 20 10v38q0 7 -13 7v54q1 7 7 7h58q89 0 129 -61q28 -9 28 -48h3q10 40 10 48q-6 0 -6 6q22 28 30 28v3h-10v4q16 20 61 20
q28 0 86 -20q19 0 48 -38v-7q0 -9 -48 -24q-38 38 -58 38q-26 -7 -28 -7l4 -7q-21 -21 -27 -48h-17v-3q22 0 27 -41q3 0 3 -14h-3v-3q30 -14 37 -14q52 8 52 17q-4 7 -4 11q11 10 17 10q34 -17 58 -24q0 7 14 7q-7 22 -7 30l7 4l-3 17q0 8 3 14q0 6 -21 23q2 7 7 7l-3 17v48
q1 7 7 7h51q7 -1 7 -7v-54q0 -4 3 -4l-7 -17q17 -4 17 -10v-31q0 -15 -6 -27q5 0 10 -10v-4q0 -7 -10 -7q13 -20 34 -20q8 0 51 31v71q-11 0 -17 4l3 24v54q1 7 7 7h536q7 -1 7 -7v-27h7q1 29 13 34h86q82 -5 82 -58q3 0 3 -14v-24q-12 -44 -41 -44q7 -11 7 -20h-20v-4
q29 0 41 -17q0 -3 -4 -3q27 -43 27 -52l-6 -3h-58q-5 0 -11 10l4 7q-20 18 -28 48q-5 0 -17 10l4 7v3q0 7 -7 7h-3q0 -10 -7 -10q0 -3 3 -3l-3 -18v-30q0 -4 3 -4q-3 -27 -10 -27h-51q-7 0 -7 7v10q0 7 10 7v3q-5 0 -14 7h-3v-27q0 -7 -7 -7h-143q-7 0 -7 7v20h-10v7h24v4
h-11l4 17q-6 0 -10 34l3 7v24l-7 10l7 3q1 -7 7 -7h13v55q-10 0 -10 10h-51v-27q0 -10 -17 -10v-4q10 0 14 -17q-7 -3 -11 -3v-55q11 0 11 -7v-61q0 -7 -7 -7h-51q-7 0 -7 7v65h-14l3 17v37q0 7 11 7q-7 14 -7 21q5 0 10 10v27h-99v-27q0 -10 -17 -10v-4q10 0 14 -17
q-7 -1 -7 -7v-44l-4 -7q11 0 11 -7v-61q0 -7 -7 -7h-51q-7 0 -7 7v65h-10l3 17v37q1 7 7 7l-7 21q5 0 10 10v27h-58v-13q0 -4 4 -4l-11 -17q21 -4 21 -10v-72q-16 -9 -31 -41q-29 -34 -75 -34q-89 0 -113 61q-5 0 -30 -20h-11v-3h7v-4q-31 -34 -82 -34h-3q-76 0 -113 61v11
h10q-10 44 -17 44q-5 4 -17 4h-7v-4q14 0 14 -7q-12 -61 -27 -61q0 -10 -34 -10v-4h20v-7q-42 -27 -78 -27h-82q-7 0 -7 7v27h-24v7h24q0 14 10 14v3q-10 0 -10 10h-4q0 -11 -27 -13q-29 -55 -96 -55q-77 0 -112 58v3h13q-10 31 -10 41q0 7 31 7v4q-34 0 -34 -4
q-6 -51 -31 -51q-4 0 -41 -38q-28 -20 -68 -20q-73 0 -109 58v3q13 0 13 4q-7 11 -13 41q0 3 34 3v4q-27 0 -48 3v4l3 6q-7 0 -7 7q14 65 41 65h4v3h-7v7q34 31 96 31zM2361 280h140q7 -1 7 -7v-27q14 0 14 -7l-11 -7h-85v-3l14 -14v-31h75v-20h-17v-21q0 -6 -7 -6h-62
l-17 -4q5 -4 10 -41l7 -3h72q2 0 10 -7q-3 -41 -10 -41h-140q-7 0 -7 7v20h-10q0 -27 -27 -27h-11q-27 0 -27 34q21 21 34 21h7q24 0 24 -21h24v4q-14 0 -14 6q7 0 7 7q-6 8 -10 38l3 7v24l-7 10l17 -4h11v55q-14 0 -14 7v3l7 10q-14 0 -14 7v24q1 7 7 7zM2597 280h6
q76 -13 76 -34q-26 -34 -45 -34q-21 20 -34 20q-14 -5 -14 -10v-14q13 0 38 -20q65 -24 65 -38q-7 -1 -7 -7q17 -1 17 -10v-3l-14 -41q0 -9 -6 -17h10v-4q-14 -27 -72 -27q-35 0 -78 31q-19 0 -24 17v3q2 8 54 31q15 -31 34 -31h11q5 0 13 14v3l-3 17q3 0 3 4q-92 24 -92 68
q4 0 4 3q-17 8 -17 18q16 61 75 61zM91 242v-6h-7q1 6 7 6zM1982 232v-10q10 0 10 -7v-31h72q7 -1 7 -6v-7q0 -7 -21 -7v-21q0 -6 -6 -6h-55l-24 -4v-3q14 0 14 -41h78q7 0 7 -10h7v34l-4 7q7 3 11 3v51l3 17q-8 0 -14 4l4 24v13h-89zM2136 232v-24l-7 -10q17 -8 17 -10
q-3 -7 -3 -10h37q17 9 17 13q-6 0 -10 31q-13 10 -24 10h-27zM982 229v-10q13 0 13 -7v-38q0 -7 -27 -13v-4q14 0 14 -7v-48q0 -3 3 -3l-3 -7v-3h20q24 7 41 7v3h-7v3q24 32 24 52h-10v10l24 3q0 47 -68 62h-24zM476 174v-13q13 0 21 -7l-4 -7q0 -17 28 -45q-7 -3 -11 -3v-3
l31 -4q0 7 48 14q24 23 24 48v3q-17 0 -17 17h-27v7h23v3q-22 41 -51 41h-7q-58 -12 -58 -51zM726 171q0 -7 20 -17l-3 -7q0 -17 27 -45q-7 -3 -10 -3v-3q12 0 30 -4q0 7 48 14q25 23 28 51q-21 0 -21 17h-27v7h24v3q-20 41 -52 41h-6q-58 -12 -58 -54zM1040 167h7v-6h-7v6z
M166 154v-4h10v4h-10zM306 154v-4h6v4h-6zM176 147v-4h10v4h-10zM319 147v-4h7v4h-7zM193 137v-7q1 -7 7 -7q0 13 7 20h-7q-7 -1 -7 -6zM333 133q3 -6 3 -10h4q0 9 7 20h-7q-7 0 -7 -10zM422 130h3v-7h-3v7zM2115 120v-4h14v4h-14zM1265 113h3v-4q0 -5 -10 -10h-7v7
q6 0 14 7zM2030 75v-3h14v3h-14zM2477 75v-3h10v3h-10z" />
    <glyph glyph-name="macron" unicode="&#xaf;" horiz-adv-x="670" 
 />
    <glyph glyph-name="degree" unicode="&#xb0;" horiz-adv-x="674" 
 />
    <glyph glyph-name="plusminus" unicode="&#xb1;" 
 />
    <glyph glyph-name="uni00B2" unicode="&#xb2;" 
 />
    <glyph glyph-name="uni00B3" unicode="&#xb3;" 
 />
    <glyph glyph-name="acute" unicode="&#xb4;" horiz-adv-x="1024" 
 />
    <glyph glyph-name="mu" unicode="&#xb5;" horiz-adv-x="1180" 
 />
    <glyph glyph-name="paragraph" unicode="&#xb6;" horiz-adv-x="1024" 
 />
    <glyph glyph-name="periodcentered" unicode="&#xb7;" horiz-adv-x="508" 
 />
    <glyph glyph-name="periodcentered" unicode="&#x2219;" horiz-adv-x="508" 
 />
    <glyph glyph-name="cedilla" unicode="&#xb8;" horiz-adv-x="1024" 
 />
    <glyph glyph-name="uni00B9" unicode="&#xb9;" 
 />
    <glyph glyph-name="ordmasculine" unicode="&#xba;" horiz-adv-x="718" 
 />
    <glyph glyph-name="guillemotright" unicode="&#xbb;" horiz-adv-x="944" 
 />
    <glyph glyph-name="onequarter" unicode="&#xbc;" horiz-adv-x="1708" 
 />
    <glyph glyph-name="onehalf" unicode="&#xbd;" horiz-adv-x="1964" 
 />
    <glyph glyph-name="threequarters" unicode="&#xbe;" horiz-adv-x="1708" 
 />
    <glyph glyph-name="questiondown" unicode="&#xbf;" horiz-adv-x="1339" 
d="M537 -188h-13q-198 1 -258 52q9 7 38 7v13q-83 30 -186 155q-97 136 -97 239q-6 0 -6 19v13l7 13l45 -7h109v39h-96l-13 7l6 12v33h-45l-38 32v19q26 132 71 181q51 77 116 77q30 27 181 103q71 42 71 142v6q-2 13 -13 13h-58q-13 2 -13 13q1 15 46 26q6 11 6 26l-6 45
l19 13l316 -1l39 -7l13 7q10 -7 39 -7l-1 -71q0 -13 -51 -19v-26h71q13 0 13 -13q-1 -211 -85 -264q-14 0 -90 -64q-172 -75 -233 -129q-39 -51 -39 -77q33 0 33 -26h38l13 -7l-6 -32q0 -13 13 -13h83q13 0 13 -13v-6q-2 -13 -13 -13q-117 -6 -148 -6l-7 -13q41 -78 52 -78
q26 -48 122 -84h52q74 6 142 77l65 97q32 0 45 45h13l-7 45h-38q-9 0 -20 19l13 7l316 -1q7 0 7 -6l13 6q6 0 6 -6l13 6h7q6 0 6 -6l13 6h6q13 0 13 -26h45q13 0 13 -13v-26l-32 -45q-31 0 -45 -96q-10 -79 -98 -207q-127 -124 -219 -154h-39q-202 -45 -232 -45
q-47 -6 -116 -6zM662 1238h-129q-94 0 -155 110l1 6q12 2 12 13l-6 45q13 7 19 7v26q-19 0 -19 12v7q0 137 155 180h129q143 0 194 -129q-1 -69 45 -78q-1 -18 -39 -32q-5 -58 -52 -58q-20 -61 -123 -103zM972 1411q-13 2 -13 13v6q0 13 13 13t13 -13v-6q-2 -13 -13 -13z
" />
    <glyph glyph-name="Agrave" unicode="&#xc0;" horiz-adv-x="1351" 
d="M519 1643h399q12 -2 109 -284l20 -13h68q18 -14 162 -434l48 -135l-14 -7h-156v-7q0 -36 41 -40l41 6h6q29 -15 190 -514l-14 -7q-23 7 -27 7q-6 0 -6 -7l-48 7h-34q-13 -2 -13 -14q36 -108 47 -108h136q13 -2 13 -14v-6q0 -14 -13 -14h-149q-16 0 -27 7q-12 -7 -28 -7
h-142l-47 7l-7 -14q2 -13 14 -13h406q20 0 88 -224v-7h-508q-11 0 -81 231h-359q-15 0 -27 6q-12 -6 -27 -6q-14 0 -14 13q7 0 7 7q125 7 183 7h217q13 0 13 13l-20 14h-136q-8 0 -40 61h-54v-7q0 -6 6 -54h-61q-7 0 -47 61h-393q-39 0 -47 -54l13 -7h115q14 -2 14 -14v-6
l-88 -265h-515v7l95 271l-203 7q-14 0 -14 13q34 109 48 109h183q49 0 67 115q12 1 68 169l75 217v7h-68q-14 63 -5 44q-9 10 181 10q10 2 108 277l95 278v7h-34v7q51 173 109 291zM736 1054q-73 -284 -102 -284h-156q-13 0 -20 -41h41q40 -4 40 -20q-68 -209 -68 -217
l34 -6l48 6q13 -6 20 -6l41 6q6 0 6 -6l34 6h115q7 0 7 -6q68 6 68 20v7q-25 45 -61 176q0 35 -61 40q0 17 -14 34q3 14 14 14h115q-34 124 -88 277h-13z" />
    <glyph glyph-name="Aacute" unicode="&#xc1;" horiz-adv-x="1351" 
d="M519 1643h399q12 -2 109 -284l20 -13h68q18 -14 162 -434l48 -135l-14 -7h-156v-7q0 -36 41 -40l41 6h6q29 -15 190 -514l-14 -7q-23 7 -27 7q-6 0 -6 -7l-48 7h-34q-13 -2 -13 -14q36 -108 47 -108h136q13 -2 13 -14v-6q0 -14 -13 -14h-149q-16 0 -27 7q-12 -7 -28 -7
h-142l-47 7l-7 -14q2 -13 14 -13h406q20 0 88 -224v-7h-508q-11 0 -81 231h-359q-15 0 -27 6q-12 -6 -27 -6q-14 0 -14 13q7 0 7 7q125 7 183 7h217q13 0 13 13l-20 14h-136q-8 0 -40 61h-54v-7q0 -6 6 -54h-61q-7 0 -47 61h-393q-39 0 -47 -54l13 -7h115q14 -2 14 -14v-6
l-88 -265h-515v7l95 271l-203 7q-14 0 -14 13q34 109 48 109h183q49 0 67 115q12 1 68 169l75 217v7h-68q-14 63 -5 44q-9 10 181 10q10 2 108 277l95 278v7h-34v7q51 173 109 291zM736 1054q-73 -284 -102 -284h-156q-13 0 -20 -41h41q40 -4 40 -20q-68 -209 -68 -217
l34 -6l48 6q13 -6 20 -6l41 6q6 0 6 -6l34 6h115q7 0 7 -6q68 6 68 20v7q-25 45 -61 176q0 35 -61 40q0 17 -14 34q3 14 14 14h115q-34 124 -88 277h-13z" />
    <glyph glyph-name="Acircumflex" unicode="&#xc2;" horiz-adv-x="1351" 
d="M519 1643h399q12 -2 109 -284l20 -13h68q18 -14 162 -434l48 -135l-14 -7h-156v-7q0 -36 41 -40l41 6h6q29 -15 190 -514l-14 -7q-23 7 -27 7q-6 0 -6 -7l-48 7h-34q-13 -2 -13 -14q36 -108 47 -108h136q13 -2 13 -14v-6q0 -14 -13 -14h-149q-16 0 -27 7q-12 -7 -28 -7
h-142l-47 7l-7 -14q2 -13 14 -13h406q20 0 88 -224v-7h-508q-11 0 -81 231h-359q-15 0 -27 6q-12 -6 -27 -6q-14 0 -14 13q7 0 7 7q125 7 183 7h217q13 0 13 13l-20 14h-136q-8 0 -40 61h-54v-7q0 -6 6 -54h-61q-7 0 -47 61h-393q-39 0 -47 -54l13 -7h115q14 -2 14 -14v-6
l-88 -265h-515v7l95 271l-203 7q-14 0 -14 13q34 109 48 109h183q49 0 67 115q12 1 68 169l75 217v7h-68q-14 63 -5 44q-9 10 181 10q10 2 108 277l95 278v7h-34v7q51 173 109 291zM736 1054q-73 -284 -102 -284h-156q-13 0 -20 -41h41q40 -4 40 -20q-68 -209 -68 -217
l34 -6l48 6q13 -6 20 -6l41 6q6 0 6 -6l34 6h115q7 0 7 -6q68 6 68 20v7q-25 45 -61 176q0 35 -61 40q0 17 -14 34q3 14 14 14h115q-34 124 -88 277h-13z" />
    <glyph glyph-name="Atilde" unicode="&#xc3;" horiz-adv-x="1351" 
d="M519 1643h399q12 -2 109 -284l20 -13h68q18 -14 162 -434l48 -135l-14 -7h-156v-7q0 -36 41 -40l41 6h6q29 -15 190 -514l-14 -7q-23 7 -27 7q-6 0 -6 -7l-48 7h-34q-13 -2 -13 -14q36 -108 47 -108h136q13 -2 13 -14v-6q0 -14 -13 -14h-149q-16 0 -27 7q-12 -7 -28 -7
h-142l-47 7l-7 -14q2 -13 14 -13h406q20 0 88 -224v-7h-508q-11 0 -81 231h-359q-15 0 -27 6q-12 -6 -27 -6q-14 0 -14 13q7 0 7 7q125 7 183 7h217q13 0 13 13l-20 14h-136q-8 0 -40 61h-54v-7q0 -6 6 -54h-61q-7 0 -47 61h-393q-39 0 -47 -54l13 -7h115q14 -2 14 -14v-6
l-88 -265h-515v7l95 271l-203 7q-14 0 -14 13q34 109 48 109h183q49 0 67 115q12 1 68 169l75 217v7h-68q-14 63 -5 44q-9 10 181 10q10 2 108 277l95 278v7h-34v7q51 173 109 291zM736 1054q-73 -284 -102 -284h-156q-13 0 -20 -41h41q40 -4 40 -20q-68 -209 -68 -217
l34 -6l48 6q13 -6 20 -6l41 6q6 0 6 -6l34 6h115q7 0 7 -6q68 6 68 20v7q-25 45 -61 176q0 35 -61 40q0 17 -14 34q3 14 14 14h115q-34 124 -88 277h-13z" />
    <glyph glyph-name="Adieresis" unicode="&#xc4;" horiz-adv-x="1351" 
d="M519 1643h399q12 -2 109 -284l20 -13h68q18 -14 162 -434l48 -135l-14 -7h-156v-7q0 -36 41 -40l41 6h6q29 -15 190 -514l-14 -7q-23 7 -27 7q-6 0 -6 -7l-48 7h-34q-13 -2 -13 -14q36 -108 47 -108h136q13 -2 13 -14v-6q0 -14 -13 -14h-149q-16 0 -27 7q-12 -7 -28 -7
h-142l-47 7l-7 -14q2 -13 14 -13h406q20 0 88 -224v-7h-508q-11 0 -81 231h-359q-15 0 -27 6q-12 -6 -27 -6q-14 0 -14 13q7 0 7 7q125 7 183 7h217q13 0 13 13l-20 14h-136q-8 0 -40 61h-54v-7q0 -6 6 -54h-61q-7 0 -47 61h-393q-39 0 -47 -54l13 -7h115q14 -2 14 -14v-6
l-88 -265h-515v7l95 271l-203 7q-14 0 -14 13q34 109 48 109h183q49 0 67 115q12 1 68 169l75 217v7h-68q-14 63 -5 44q-9 10 181 10q10 2 108 277l95 278v7h-34v7q51 173 109 291zM736 1054q-73 -284 -102 -284h-156q-13 0 -20 -41h41q40 -4 40 -20q-68 -209 -68 -217
l34 -6l48 6q13 -6 20 -6l41 6q6 0 6 -6l34 6h115q7 0 7 -6q68 6 68 20v7q-25 45 -61 176q0 35 -61 40q0 17 -14 34q3 14 14 14h115q-34 124 -88 277h-13z" />
    <glyph glyph-name="Aring" unicode="&#xc5;" horiz-adv-x="1351" 
d="M519 1643h399q12 -2 109 -284l20 -13h68q18 -14 162 -434l48 -135l-14 -7h-156v-7q0 -36 41 -40l41 6h6q29 -15 190 -514l-14 -7q-23 7 -27 7q-6 0 -6 -7l-48 7h-34q-13 -2 -13 -14q36 -108 47 -108h136q13 -2 13 -14v-6q0 -14 -13 -14h-149q-16 0 -27 7q-12 -7 -28 -7
h-142l-47 7l-7 -14q2 -13 14 -13h406q20 0 88 -224v-7h-508q-11 0 -81 231h-359q-15 0 -27 6q-12 -6 -27 -6q-14 0 -14 13q7 0 7 7q125 7 183 7h217q13 0 13 13l-20 14h-136q-8 0 -40 61h-54v-7q0 -6 6 -54h-61q-7 0 -47 61h-393q-39 0 -47 -54l13 -7h115q14 -2 14 -14v-6
l-88 -265h-515v7l95 271l-203 7q-14 0 -14 13q34 109 48 109h183q49 0 67 115q12 1 68 169l75 217v7h-68q-14 63 -5 44q-9 10 181 10q10 2 108 277l95 278v7h-34v7q51 173 109 291zM736 1054q-73 -284 -102 -284h-156q-13 0 -20 -41h41q40 -4 40 -20q-68 -209 -68 -217
l34 -6l48 6q13 -6 20 -6l41 6q6 0 6 -6l34 6h115q7 0 7 -6q68 6 68 20v7q-25 45 -61 176q0 35 -61 40q0 17 -14 34q3 14 14 14h115q-34 124 -88 277h-13z" />
    <glyph glyph-name="AE" unicode="&#xc6;" horiz-adv-x="2118" 
 />
    <glyph glyph-name="Ccedilla" unicode="&#xc7;" horiz-adv-x="1399" 
 />
    <glyph glyph-name="Egrave" unicode="&#xc8;" horiz-adv-x="1248" 
d="M228 1644h962q9 0 20 -20v-231q0 -9 20 -20h27q16 0 28 7q33 -9 33 -20v-14q0 -13 -13 -13h-34v-34q0 -14 -14 -14h-467q-71 0 -216 -7v-61q2 -13 13 -13h61q14 -2 14 -14v-291h589q13 -2 13 -13v-102q0 -13 -74 -20l-14 7l-40 -7q-14 7 -21 7l-7 -34v-115l7 -68l-20 -14
h-576q0 -23 -47 -27l-41 7h-13q-14 -2 -14 -14v-6h41l68 -7v-224q0 -36 40 -40q0 -15 7 -27q-7 -12 -7 -27v-7h644q13 0 20 -68h101q14 -2 14 -13q0 -14 -14 -14h-74l-34 -7v-257h-1110q-7 0 -7 7l-14 -7h-40q-10 0 -21 20v14q0 7 7 7l-7 13v163l-34 6h-60q-14 0 -14 14v14
q2 13 14 13q113 7 176 7h27v13l-68 7h-27q-14 0 -14 20l7 14q-7 12 -7 27q0 9 41 20q7 12 7 28q0 29 -48 33v231l7 13l-13 7h-88q-14 0 -14 13q2 14 14 14h81q13 0 13 14v223q0 14 21 14t128 6v413q0 21 -74 21h-14v108l48 27v14q0 13 -14 13h-81q-14 0 -14 14v237l7 13
q136 7 203 7zM-29 831h34q13 -2 13 -13v-34q0 -13 -13 -13h-34q-14 0 -14 13v34q3 13 14 13zM215 80h61v13h-48q-13 -2 -13 -13zM946 73v-27q2 -14 14 -14h94q0 8 7 21q-7 13 -7 20h-108z" />
    <glyph glyph-name="Eacute" unicode="&#xc9;" horiz-adv-x="1248" 
d="M228 1644h962q9 0 20 -20v-231q0 -9 20 -20h27q16 0 28 7q33 -9 33 -20v-14q0 -13 -13 -13h-34v-34q0 -14 -14 -14h-467q-71 0 -216 -7v-61q2 -13 13 -13h61q14 -2 14 -14v-291h589q13 -2 13 -13v-102q0 -13 -74 -20l-14 7l-40 -7q-14 7 -21 7l-7 -34v-115l7 -68l-20 -14
h-576q0 -23 -47 -27l-41 7h-13q-14 -2 -14 -14v-6h41l68 -7v-224q0 -36 40 -40q0 -15 7 -27q-7 -12 -7 -27v-7h644q13 0 20 -68h101q14 -2 14 -13q0 -14 -14 -14h-74l-34 -7v-257h-1110q-7 0 -7 7l-14 -7h-40q-10 0 -21 20v14q0 7 7 7l-7 13v163l-34 6h-60q-14 0 -14 14v14
q2 13 14 13q113 7 176 7h27v13l-68 7h-27q-14 0 -14 20l7 14q-7 12 -7 27q0 9 41 20q7 12 7 28q0 29 -48 33v231l7 13l-13 7h-88q-14 0 -14 13q2 14 14 14h81q13 0 13 14v223q0 14 21 14t128 6v413q0 21 -74 21h-14v108l48 27v14q0 13 -14 13h-81q-14 0 -14 14v237l7 13
q136 7 203 7zM-29 831h34q13 -2 13 -13v-34q0 -13 -13 -13h-34q-14 0 -14 13v34q3 13 14 13zM215 80h61v13h-48q-13 -2 -13 -13zM946 73v-27q2 -14 14 -14h94q0 8 7 21q-7 13 -7 20h-108z" />
    <glyph glyph-name="Ecircumflex" unicode="&#xca;" horiz-adv-x="1248" 
d="M228 1644h962q9 0 20 -20v-231q0 -9 20 -20h27q16 0 28 7q33 -9 33 -20v-14q0 -13 -13 -13h-34v-34q0 -14 -14 -14h-467q-71 0 -216 -7v-61q2 -13 13 -13h61q14 -2 14 -14v-291h589q13 -2 13 -13v-102q0 -13 -74 -20l-14 7l-40 -7q-14 7 -21 7l-7 -34v-115l7 -68l-20 -14
h-576q0 -23 -47 -27l-41 7h-13q-14 -2 -14 -14v-6h41l68 -7v-224q0 -36 40 -40q0 -15 7 -27q-7 -12 -7 -27v-7h644q13 0 20 -68h101q14 -2 14 -13q0 -14 -14 -14h-74l-34 -7v-257h-1110q-7 0 -7 7l-14 -7h-40q-10 0 -21 20v14q0 7 7 7l-7 13v163l-34 6h-60q-14 0 -14 14v14
q2 13 14 13q113 7 176 7h27v13l-68 7h-27q-14 0 -14 20l7 14q-7 12 -7 27q0 9 41 20q7 12 7 28q0 29 -48 33v231l7 13l-13 7h-88q-14 0 -14 13q2 14 14 14h81q13 0 13 14v223q0 14 21 14t128 6v413q0 21 -74 21h-14v108l48 27v14q0 13 -14 13h-81q-14 0 -14 14v237l7 13
q136 7 203 7zM-29 831h34q13 -2 13 -13v-34q0 -13 -13 -13h-34q-14 0 -14 13v34q3 13 14 13zM215 80h61v13h-48q-13 -2 -13 -13zM946 73v-27q2 -14 14 -14h94q0 8 7 21q-7 13 -7 20h-108z" />
    <glyph glyph-name="Edieresis" unicode="&#xcb;" horiz-adv-x="1248" 
d="M228 1644h962q9 0 20 -20v-231q0 -9 20 -20h27q16 0 28 7q33 -9 33 -20v-14q0 -13 -13 -13h-34v-34q0 -14 -14 -14h-467q-71 0 -216 -7v-61q2 -13 13 -13h61q14 -2 14 -14v-291h589q13 -2 13 -13v-102q0 -13 -74 -20l-14 7l-40 -7q-14 7 -21 7l-7 -34v-115l7 -68l-20 -14
h-576q0 -23 -47 -27l-41 7h-13q-14 -2 -14 -14v-6h41l68 -7v-224q0 -36 40 -40q0 -15 7 -27q-7 -12 -7 -27v-7h644q13 0 20 -68h101q14 -2 14 -13q0 -14 -14 -14h-74l-34 -7v-257h-1110q-7 0 -7 7l-14 -7h-40q-10 0 -21 20v14q0 7 7 7l-7 13v163l-34 6h-60q-14 0 -14 14v14
q2 13 14 13q113 7 176 7h27v13l-68 7h-27q-14 0 -14 20l7 14q-7 12 -7 27q0 9 41 20q7 12 7 28q0 29 -48 33v231l7 13l-13 7h-88q-14 0 -14 13q2 14 14 14h81q13 0 13 14v223q0 14 21 14t128 6v413q0 21 -74 21h-14v108l48 27v14q0 13 -14 13h-81q-14 0 -14 14v237l7 13
q136 7 203 7zM-29 831h34q13 -2 13 -13v-34q0 -13 -13 -13h-34q-14 0 -14 13v34q3 13 14 13zM215 80h61v13h-48q-13 -2 -13 -13zM946 73v-27q2 -14 14 -14h94q0 8 7 21q-7 13 -7 20h-108z" />
    <glyph glyph-name="Igrave" unicode="&#xcc;" horiz-adv-x="657" 
d="M55 1641h467q14 0 21 -74h74q14 -3 14 -14l-21 -14q-23 7 -27 7q-12 -7 -27 -7v7q-13 -7 -20 -7v-799q0 -16 54 -20q12 7 27 7q0 -3 14 -20v-21q0 -9 -21 -20h-40q-21 0 -21 7l-33 -7h-68q-14 -2 -14 -14v-27q2 -13 14 -13h142v-474q0 -15 7 -27q-11 -34 -41 -34
q0 7 -7 7l-6 -14v-196q2 -14 13 -14q12 7 27 7q14 -25 14 -54l-14 -7h-298q-57 0 -182 7v40l-48 27q0 7 -7 7l7 48v40q0 16 -7 27q7 12 7 27v34q0 13 -61 34q-7 13 -7 20q11 28 21 28h27q12 0 20 -61h34q14 0 14 13v501q0 14 -14 14q-119 7 -142 7l-7 13v20q0 10 20 21
q7 0 7 -7l14 7h142q13 0 13 13v21l-13 20l-48 -7h-13q-10 0 -20 20v786l6 13q-10 7 -40 7v14h34v67q2 14 13 14zM89 1553q2 -14 14 -14h13q14 0 14 14t-14 14h-13q-14 -3 -14 -14z" />
    <glyph glyph-name="Iacute" unicode="&#xcd;" horiz-adv-x="657" 
d="M55 1641h467q14 0 21 -74h74q14 -3 14 -14l-21 -14q-23 7 -27 7q-12 -7 -27 -7v7q-13 -7 -20 -7v-799q0 -16 54 -20q12 7 27 7q0 -3 14 -20v-21q0 -9 -21 -20h-40q-21 0 -21 7l-33 -7h-68q-14 -2 -14 -14v-27q2 -13 14 -13h142v-474q0 -15 7 -27q-11 -34 -41 -34
q0 7 -7 7l-6 -14v-196q2 -14 13 -14q12 7 27 7q14 -25 14 -54l-14 -7h-298q-57 0 -182 7v40l-48 27q0 7 -7 7l7 48v40q0 16 -7 27q7 12 7 27v34q0 13 -61 34q-7 13 -7 20q11 28 21 28h27q12 0 20 -61h34q14 0 14 13v501q0 14 -14 14q-119 7 -142 7l-7 13v20q0 10 20 21
q7 0 7 -7l14 7h142q13 0 13 13v21l-13 20l-48 -7h-13q-10 0 -20 20v786l6 13q-10 7 -40 7v14h34v67q2 14 13 14zM89 1553q2 -14 14 -14h13q14 0 14 14t-14 14h-13q-14 -3 -14 -14z" />
    <glyph glyph-name="Icircumflex" unicode="&#xce;" horiz-adv-x="657" 
d="M55 1641h467q14 0 21 -74h74q14 -3 14 -14l-21 -14q-23 7 -27 7q-12 -7 -27 -7v7q-13 -7 -20 -7v-799q0 -16 54 -20q12 7 27 7q0 -3 14 -20v-21q0 -9 -21 -20h-40q-21 0 -21 7l-33 -7h-68q-14 -2 -14 -14v-27q2 -13 14 -13h142v-474q0 -15 7 -27q-11 -34 -41 -34
q0 7 -7 7l-6 -14v-196q2 -14 13 -14q12 7 27 7q14 -25 14 -54l-14 -7h-298q-57 0 -182 7v40l-48 27q0 7 -7 7l7 48v40q0 16 -7 27q7 12 7 27v34q0 13 -61 34q-7 13 -7 20q11 28 21 28h27q12 0 20 -61h34q14 0 14 13v501q0 14 -14 14q-119 7 -142 7l-7 13v20q0 10 20 21
q7 0 7 -7l14 7h142q13 0 13 13v21l-13 20l-48 -7h-13q-10 0 -20 20v786l6 13q-10 7 -40 7v14h34v67q2 14 13 14zM89 1553q2 -14 14 -14h13q14 0 14 14t-14 14h-13q-14 -3 -14 -14z" />
    <glyph glyph-name="Idieresis" unicode="&#xcf;" horiz-adv-x="657" 
d="M55 1641h467q14 0 21 -74h74q14 -3 14 -14l-21 -14q-23 7 -27 7q-12 -7 -27 -7v7q-13 -7 -20 -7v-799q0 -16 54 -20q12 7 27 7q0 -3 14 -20v-21q0 -9 -21 -20h-40q-21 0 -21 7l-33 -7h-68q-14 -2 -14 -14v-27q2 -13 14 -13h142v-474q0 -15 7 -27q-11 -34 -41 -34
q0 7 -7 7l-6 -14v-196q2 -14 13 -14q12 7 27 7q14 -25 14 -54l-14 -7h-298q-57 0 -182 7v40l-48 27q0 7 -7 7l7 48v40q0 16 -7 27q7 12 7 27v34q0 13 -61 34q-7 13 -7 20q11 28 21 28h27q12 0 20 -61h34q14 0 14 13v501q0 14 -14 14q-119 7 -142 7l-7 13v20q0 10 20 21
q7 0 7 -7l14 7h142q13 0 13 13v21l-13 20l-48 -7h-13q-10 0 -20 20v786l6 13q-10 7 -40 7v14h34v67q2 14 13 14zM89 1553q2 -14 14 -14h13q14 0 14 14t-14 14h-13q-14 -3 -14 -14z" />
    <glyph glyph-name="Eth" unicode="&#xd0;" horiz-adv-x="1518" 
 />
    <glyph glyph-name="Ntilde" unicode="&#xd1;" horiz-adv-x="1554" 
 />
    <glyph glyph-name="Ograve" unicode="&#xd2;" horiz-adv-x="1938" 
d="M1032 1641q233 0 394 -99q-12 -6 -26 -6v-13q24 0 183 -125q39 0 79 -26h73l32 -7v-7q0 -13 -13 -13h-33q-6 0 -6 7q-11 -7 -33 -7v-6q149 -166 223 -447l-19 -13h-158v-7q97 0 112 -6q11 6 33 6h13q26 0 26 -125q2 -13 13 -13h66q6 0 6 -6l14 6h6q40 -4 40 -19
q0 -219 -125 -441l-13 -6h-125l-27 -20h-65q-13 -2 -13 -13q72 0 72 -7q-153 -252 -473 -374q-156 -40 -283 -40h-72q-77 0 -105 14q-13 -7 -20 -7q-289 49 -453 191q-127 107 -204 216q-11 7 -26 7h-59v13h65q0 20 14 20h85l33 6q-102 194 -112 355v20l7 13q6 0 6 -7
q99 7 145 7h98v7q0 13 -13 13h-236q-8 0 -33 46h-112q-13 0 -13 13t53 20v26q-7 0 -20 6q-13 -6 -20 -6q-6 13 -6 20q19 228 170 459q58 79 106 79q85 0 85 20q-22 13 -39 13h-7l-33 -6l-6 13l6 13q-26 0 -26 13q49 43 184 125h72q176 105 513 105zM486 820v-13l40 -27v-13
q0 -13 -14 -13h-32v-20h118q11 0 20 -46q141 -6 210 -6h52v-13q0 -14 -13 -14q-12 7 -19 7t-7 -7l-33 7q-24 0 -184 -7v-32q32 -161 164 -290q73 -50 73 -59l-13 -6h-92l6 -13v-7h-39v-13h79q117 -33 157 -33q38 0 125 20q0 13 -13 13h-33v13h72q7 0 92 20h66q15 0 26 6
q13 -6 20 -6q129 55 230 243q39 132 39 151v53q0 11 -65 19l-13 -6h-46q-27 0 -27 131l-32 7h-224v13q99 6 145 6h98v7q-62 175 -197 269q-149 92 -243 92q-275 0 -447 -282q-46 -116 -46 -151zM33 682h72q13 -2 13 -13l-13 -7h-72v20zM1649 655l-6 -13v-6h6q0 13 13 13v6
h-13zM841 557h7q13 -2 13 -13v-20q0 -13 -13 -13h-7q-13 0 -13 13v20q2 13 13 13zM72 485h40l6 -33l-19 -13h-20q-13 0 -20 39z" />
    <glyph glyph-name="Oacute" unicode="&#xd3;" horiz-adv-x="1938" 
d="M1032 1641q233 0 394 -99q-12 -6 -26 -6v-13q24 0 183 -125q39 0 79 -26h73l32 -7v-7q0 -13 -13 -13h-33q-6 0 -6 7q-11 -7 -33 -7v-6q149 -166 223 -447l-19 -13h-158v-7q97 0 112 -6q11 6 33 6h13q26 0 26 -125q2 -13 13 -13h66q6 0 6 -6l14 6h6q40 -4 40 -19
q0 -219 -125 -441l-13 -6h-125l-27 -20h-65q-13 -2 -13 -13q72 0 72 -7q-153 -252 -473 -374q-156 -40 -283 -40h-72q-77 0 -105 14q-13 -7 -20 -7q-289 49 -453 191q-127 107 -204 216q-11 7 -26 7h-59v13h65q0 20 14 20h85l33 6q-102 194 -112 355v20l7 13q6 0 6 -7
q99 7 145 7h98v7q0 13 -13 13h-236q-8 0 -33 46h-112q-13 0 -13 13t53 20v26q-7 0 -20 6q-13 -6 -20 -6q-6 13 -6 20q19 228 170 459q58 79 106 79q85 0 85 20q-22 13 -39 13h-7l-33 -6l-6 13l6 13q-26 0 -26 13q49 43 184 125h72q176 105 513 105zM486 820v-13l40 -27v-13
q0 -13 -14 -13h-32v-20h118q11 0 20 -46q141 -6 210 -6h52v-13q0 -14 -13 -14q-12 7 -19 7t-7 -7l-33 7q-24 0 -184 -7v-32q32 -161 164 -290q73 -50 73 -59l-13 -6h-92l6 -13v-7h-39v-13h79q117 -33 157 -33q38 0 125 20q0 13 -13 13h-33v13h72q7 0 92 20h66q15 0 26 6
q13 -6 20 -6q129 55 230 243q39 132 39 151v53q0 11 -65 19l-13 -6h-46q-27 0 -27 131l-32 7h-224v13q99 6 145 6h98v7q-62 175 -197 269q-149 92 -243 92q-275 0 -447 -282q-46 -116 -46 -151zM33 682h72q13 -2 13 -13l-13 -7h-72v20zM1649 655l-6 -13v-6h6q0 13 13 13v6
h-13zM841 557h7q13 -2 13 -13v-20q0 -13 -13 -13h-7q-13 0 -13 13v20q2 13 13 13zM72 485h40l6 -33l-19 -13h-20q-13 0 -20 39z" />
    <glyph glyph-name="Ocircumflex" unicode="&#xd4;" horiz-adv-x="1938" 
d="M1032 1641q233 0 394 -99q-12 -6 -26 -6v-13q24 0 183 -125q39 0 79 -26h73l32 -7v-7q0 -13 -13 -13h-33q-6 0 -6 7q-11 -7 -33 -7v-6q149 -166 223 -447l-19 -13h-158v-7q97 0 112 -6q11 6 33 6h13q26 0 26 -125q2 -13 13 -13h66q6 0 6 -6l14 6h6q40 -4 40 -19
q0 -219 -125 -441l-13 -6h-125l-27 -20h-65q-13 -2 -13 -13q72 0 72 -7q-153 -252 -473 -374q-156 -40 -283 -40h-72q-77 0 -105 14q-13 -7 -20 -7q-289 49 -453 191q-127 107 -204 216q-11 7 -26 7h-59v13h65q0 20 14 20h85l33 6q-102 194 -112 355v20l7 13q6 0 6 -7
q99 7 145 7h98v7q0 13 -13 13h-236q-8 0 -33 46h-112q-13 0 -13 13t53 20v26q-7 0 -20 6q-13 -6 -20 -6q-6 13 -6 20q19 228 170 459q58 79 106 79q85 0 85 20q-22 13 -39 13h-7l-33 -6l-6 13l6 13q-26 0 -26 13q49 43 184 125h72q176 105 513 105zM486 820v-13l40 -27v-13
q0 -13 -14 -13h-32v-20h118q11 0 20 -46q141 -6 210 -6h52v-13q0 -14 -13 -14q-12 7 -19 7t-7 -7l-33 7q-24 0 -184 -7v-32q32 -161 164 -290q73 -50 73 -59l-13 -6h-92l6 -13v-7h-39v-13h79q117 -33 157 -33q38 0 125 20q0 13 -13 13h-33v13h72q7 0 92 20h66q15 0 26 6
q13 -6 20 -6q129 55 230 243q39 132 39 151v53q0 11 -65 19l-13 -6h-46q-27 0 -27 131l-32 7h-224v13q99 6 145 6h98v7q-62 175 -197 269q-149 92 -243 92q-275 0 -447 -282q-46 -116 -46 -151zM33 682h72q13 -2 13 -13l-13 -7h-72v20zM1649 655l-6 -13v-6h6q0 13 13 13v6
h-13zM841 557h7q13 -2 13 -13v-20q0 -13 -13 -13h-7q-13 0 -13 13v20q2 13 13 13zM72 485h40l6 -33l-19 -13h-20q-13 0 -20 39z" />
    <glyph glyph-name="Otilde" unicode="&#xd5;" horiz-adv-x="1938" 
d="M1032 1641q233 0 394 -99q-12 -6 -26 -6v-13q24 0 183 -125q39 0 79 -26h73l32 -7v-7q0 -13 -13 -13h-33q-6 0 -6 7q-11 -7 -33 -7v-6q149 -166 223 -447l-19 -13h-158v-7q97 0 112 -6q11 6 33 6h13q26 0 26 -125q2 -13 13 -13h66q6 0 6 -6l14 6h6q40 -4 40 -19
q0 -219 -125 -441l-13 -6h-125l-27 -20h-65q-13 -2 -13 -13q72 0 72 -7q-153 -252 -473 -374q-156 -40 -283 -40h-72q-77 0 -105 14q-13 -7 -20 -7q-289 49 -453 191q-127 107 -204 216q-11 7 -26 7h-59v13h65q0 20 14 20h85l33 6q-102 194 -112 355v20l7 13q6 0 6 -7
q99 7 145 7h98v7q0 13 -13 13h-236q-8 0 -33 46h-112q-13 0 -13 13t53 20v26q-7 0 -20 6q-13 -6 -20 -6q-6 13 -6 20q19 228 170 459q58 79 106 79q85 0 85 20q-22 13 -39 13h-7l-33 -6l-6 13l6 13q-26 0 -26 13q49 43 184 125h72q176 105 513 105zM486 820v-13l40 -27v-13
q0 -13 -14 -13h-32v-20h118q11 0 20 -46q141 -6 210 -6h52v-13q0 -14 -13 -14q-12 7 -19 7t-7 -7l-33 7q-24 0 -184 -7v-32q32 -161 164 -290q73 -50 73 -59l-13 -6h-92l6 -13v-7h-39v-13h79q117 -33 157 -33q38 0 125 20q0 13 -13 13h-33v13h72q7 0 92 20h66q15 0 26 6
q13 -6 20 -6q129 55 230 243q39 132 39 151v53q0 11 -65 19l-13 -6h-46q-27 0 -27 131l-32 7h-224v13q99 6 145 6h98v7q-62 175 -197 269q-149 92 -243 92q-275 0 -447 -282q-46 -116 -46 -151zM33 682h72q13 -2 13 -13l-13 -7h-72v20zM1649 655l-6 -13v-6h6q0 13 13 13v6
h-13zM841 557h7q13 -2 13 -13v-20q0 -13 -13 -13h-7q-13 0 -13 13v20q2 13 13 13zM72 485h40l6 -33l-19 -13h-20q-13 0 -20 39z" />
    <glyph glyph-name="Odieresis" unicode="&#xd6;" horiz-adv-x="1938" 
d="M1032 1641q233 0 394 -99q-12 -6 -26 -6v-13q24 0 183 -125q39 0 79 -26h73l32 -7v-7q0 -13 -13 -13h-33q-6 0 -6 7q-11 -7 -33 -7v-6q149 -166 223 -447l-19 -13h-158v-7q97 0 112 -6q11 6 33 6h13q26 0 26 -125q2 -13 13 -13h66q6 0 6 -6l14 6h6q40 -4 40 -19
q0 -219 -125 -441l-13 -6h-125l-27 -20h-65q-13 -2 -13 -13q72 0 72 -7q-153 -252 -473 -374q-156 -40 -283 -40h-72q-77 0 -105 14q-13 -7 -20 -7q-289 49 -453 191q-127 107 -204 216q-11 7 -26 7h-59v13h65q0 20 14 20h85l33 6q-102 194 -112 355v20l7 13q6 0 6 -7
q99 7 145 7h98v7q0 13 -13 13h-236q-8 0 -33 46h-112q-13 0 -13 13t53 20v26q-7 0 -20 6q-13 -6 -20 -6q-6 13 -6 20q19 228 170 459q58 79 106 79q85 0 85 20q-22 13 -39 13h-7l-33 -6l-6 13l6 13q-26 0 -26 13q49 43 184 125h72q176 105 513 105zM486 820v-13l40 -27v-13
q0 -13 -14 -13h-32v-20h118q11 0 20 -46q141 -6 210 -6h52v-13q0 -14 -13 -14q-12 7 -19 7t-7 -7l-33 7q-24 0 -184 -7v-32q32 -161 164 -290q73 -50 73 -59l-13 -6h-92l6 -13v-7h-39v-13h79q117 -33 157 -33q38 0 125 20q0 13 -13 13h-33v13h72q7 0 92 20h66q15 0 26 6
q13 -6 20 -6q129 55 230 243q39 132 39 151v53q0 11 -65 19l-13 -6h-46q-27 0 -27 131l-32 7h-224v13q99 6 145 6h98v7q-62 175 -197 269q-149 92 -243 92q-275 0 -447 -282q-46 -116 -46 -151zM33 682h72q13 -2 13 -13l-13 -7h-72v20zM1649 655l-6 -13v-6h6q0 13 13 13v6
h-13zM841 557h7q13 -2 13 -13v-20q0 -13 -13 -13h-7q-13 0 -13 13v20q2 13 13 13zM72 485h40l6 -33l-19 -13h-20q-13 0 -20 39z" />
    <glyph glyph-name="multiply" unicode="&#xd7;" 
 />
    <glyph glyph-name="Oslash" unicode="&#xd8;" horiz-adv-x="1614" 
 />
    <glyph glyph-name="Ugrave" unicode="&#xd9;" horiz-adv-x="1661" 
d="M47 1641h459q14 -2 14 -13v-480h126q14 -2 14 -13v-7q-90 -7 -134 -7h-6v-46l-34 -27v-40q23 0 47 -33h80q13 -2 13 -14v-346q0 -13 -13 -13q-7 0 -7 6q-11 -6 -26 -6v-14q0 -15 6 -26q0 -60 -60 -60v-7l47 -6l27 6q26 0 40 -100q20 -15 20 -46l-27 -14q-36 7 -60 7h-7
q0 -65 153 -147q38 -20 147 -26q142 41 227 160q2 13 13 13h53q56 0 73 67l7 33v113q0 47 13 73q-13 0 -13 14v280l7 33q-29 20 -94 20q0 -7 -6 -7q0 36 -47 40v40l40 27q0 53 13 53h120v13q-90 7 -133 7v480q2 13 13 13h453q14 -2 14 -13v-467q2 -13 13 -13h113
q14 -2 14 -13q-34 -14 -120 -14h-14q0 -60 -39 -60v-53q33 0 33 -13l-7 -14l33 -6h67l20 -14l-7 -33v-493q0 -15 7 -26q-7 -67 -20 -67h-80q-22 0 -46 -120q-46 -127 -227 -273q13 -2 13 -13v-7q-219 -113 -406 -113q-28 0 -53 -7q-278 0 -500 100q-61 40 -120 47
q-180 124 -240 313l-13 66l13 7h74q9 0 20 20l-7 93q7 13 7 20l-20 14h-80q-14 0 -14 13l14 6h46v80l47 27q0 40 7 40l-7 47v120q0 24 7 60q-7 8 -7 46v14q0 6 7 6q0 18 -40 27q-13 -7 -20 -7v7l-14 -7h-26q-18 33 -27 33h-13v20l-7 34q40 0 40 73h133v13q-99 7 -133 7
l-7 13v467q2 13 14 13zM1312 695q0 -13 -13 -13v-7h13l7 13v7h-7z" />
    <glyph glyph-name="Uacute" unicode="&#xda;" horiz-adv-x="1661" 
d="M47 1641h459q14 -2 14 -13v-480h126q14 -2 14 -13v-7q-90 -7 -134 -7h-6v-46l-34 -27v-40q23 0 47 -33h80q13 -2 13 -14v-346q0 -13 -13 -13q-7 0 -7 6q-11 -6 -26 -6v-14q0 -15 6 -26q0 -60 -60 -60v-7l47 -6l27 6q26 0 40 -100q20 -15 20 -46l-27 -14q-36 7 -60 7h-7
q0 -65 153 -147q38 -20 147 -26q142 41 227 160q2 13 13 13h53q56 0 73 67l7 33v113q0 47 13 73q-13 0 -13 14v280l7 33q-29 20 -94 20q0 -7 -6 -7q0 36 -47 40v40l40 27q0 53 13 53h120v13q-90 7 -133 7v480q2 13 13 13h453q14 -2 14 -13v-467q2 -13 13 -13h113
q14 -2 14 -13q-34 -14 -120 -14h-14q0 -60 -39 -60v-53q33 0 33 -13l-7 -14l33 -6h67l20 -14l-7 -33v-493q0 -15 7 -26q-7 -67 -20 -67h-80q-22 0 -46 -120q-46 -127 -227 -273q13 -2 13 -13v-7q-219 -113 -406 -113q-28 0 -53 -7q-278 0 -500 100q-61 40 -120 47
q-180 124 -240 313l-13 66l13 7h74q9 0 20 20l-7 93q7 13 7 20l-20 14h-80q-14 0 -14 13l14 6h46v80l47 27q0 40 7 40l-7 47v120q0 24 7 60q-7 8 -7 46v14q0 6 7 6q0 18 -40 27q-13 -7 -20 -7v7l-14 -7h-26q-18 33 -27 33h-13v20l-7 34q40 0 40 73h133v13q-99 7 -133 7
l-7 13v467q2 13 14 13zM1312 695q0 -13 -13 -13v-7h13l7 13v7h-7z" />
    <glyph glyph-name="Ucircumflex" unicode="&#xdb;" horiz-adv-x="1661" 
d="M47 1641h459q14 -2 14 -13v-480h126q14 -2 14 -13v-7q-90 -7 -134 -7h-6v-46l-34 -27v-40q23 0 47 -33h80q13 -2 13 -14v-346q0 -13 -13 -13q-7 0 -7 6q-11 -6 -26 -6v-14q0 -15 6 -26q0 -60 -60 -60v-7l47 -6l27 6q26 0 40 -100q20 -15 20 -46l-27 -14q-36 7 -60 7h-7
q0 -65 153 -147q38 -20 147 -26q142 41 227 160q2 13 13 13h53q56 0 73 67l7 33v113q0 47 13 73q-13 0 -13 14v280l7 33q-29 20 -94 20q0 -7 -6 -7q0 36 -47 40v40l40 27q0 53 13 53h120v13q-90 7 -133 7v480q2 13 13 13h453q14 -2 14 -13v-467q2 -13 13 -13h113
q14 -2 14 -13q-34 -14 -120 -14h-14q0 -60 -39 -60v-53q33 0 33 -13l-7 -14l33 -6h67l20 -14l-7 -33v-493q0 -15 7 -26q-7 -67 -20 -67h-80q-22 0 -46 -120q-46 -127 -227 -273q13 -2 13 -13v-7q-219 -113 -406 -113q-28 0 -53 -7q-278 0 -500 100q-61 40 -120 47
q-180 124 -240 313l-13 66l13 7h74q9 0 20 20l-7 93q7 13 7 20l-20 14h-80q-14 0 -14 13l14 6h46v80l47 27q0 40 7 40l-7 47v120q0 24 7 60q-7 8 -7 46v14q0 6 7 6q0 18 -40 27q-13 -7 -20 -7v7l-14 -7h-26q-18 33 -27 33h-13v20l-7 34q40 0 40 73h133v13q-99 7 -133 7
l-7 13v467q2 13 14 13zM1312 695q0 -13 -13 -13v-7h13l7 13v7h-7z" />
    <glyph glyph-name="Udieresis" unicode="&#xdc;" horiz-adv-x="1661" 
d="M47 1641h459q14 -2 14 -13v-480h126q14 -2 14 -13v-7q-90 -7 -134 -7h-6v-46l-34 -27v-40q23 0 47 -33h80q13 -2 13 -14v-346q0 -13 -13 -13q-7 0 -7 6q-11 -6 -26 -6v-14q0 -15 6 -26q0 -60 -60 -60v-7l47 -6l27 6q26 0 40 -100q20 -15 20 -46l-27 -14q-36 7 -60 7h-7
q0 -65 153 -147q38 -20 147 -26q142 41 227 160q2 13 13 13h53q56 0 73 67l7 33v113q0 47 13 73q-13 0 -13 14v280l7 33q-29 20 -94 20q0 -7 -6 -7q0 36 -47 40v40l40 27q0 53 13 53h120v13q-90 7 -133 7v480q2 13 13 13h453q14 -2 14 -13v-467q2 -13 13 -13h113
q14 -2 14 -13q-34 -14 -120 -14h-14q0 -60 -39 -60v-53q33 0 33 -13l-7 -14l33 -6h67l20 -14l-7 -33v-493q0 -15 7 -26q-7 -67 -20 -67h-80q-22 0 -46 -120q-46 -127 -227 -273q13 -2 13 -13v-7q-219 -113 -406 -113q-28 0 -53 -7q-278 0 -500 100q-61 40 -120 47
q-180 124 -240 313l-13 66l13 7h74q9 0 20 20l-7 93q7 13 7 20l-20 14h-80q-14 0 -14 13l14 6h46v80l47 27q0 40 7 40l-7 47v120q0 24 7 60q-7 8 -7 46v14q0 6 7 6q0 18 -40 27q-13 -7 -20 -7v7l-14 -7h-26q-18 33 -27 33h-13v20l-7 34q40 0 40 73h133v13q-99 7 -133 7
l-7 13v467q2 13 14 13zM1312 695q0 -13 -13 -13v-7h13l7 13v7h-7z" />
    <glyph glyph-name="Yacute" unicode="&#xdd;" horiz-adv-x="1317" 
d="M-178 1641h527q63 -69 169 -257q-14 -6 -74 -13v-7q0 -10 20 -20h27l48 6q36 -59 47 -60h88v-21h-74v-6q6 -14 6 -21q-16 -13 -27 -13l115 -196h14q33 67 33 74q-16 0 -40 61q35 68 88 68q24 33 54 40l34 -7l33 7v14h-60q-14 0 -14 13q0 6 216 338h521q13 -2 13 -13
q-162 -223 -223 -338h61q14 -2 14 -14l-14 -7h-74l-41 -40h-40q-352 -537 -352 -548h88q14 -2 14 -13q-25 -14 -54 -14h-34l-14 7l-7 -14v-189l41 -27v-47q0 -14 -13 -14h-142v-7q15 0 27 -6q6 0 6 6l34 -6h108q14 -2 14 -14v-493l27 -27q0 -14 -20 -14q-7 0 -7 7l-34 -7
h-304q-7 0 -7 7q-7 0 -7 -7q-82 9 -94 14q0 -7 -7 -7q0 4 -34 34v480q0 9 -20 20h-102l-40 7q-13 -7 -20 -7v7l-14 -7h-7q-13 0 -13 13l13 7h149q14 0 14 14v47q0 9 -48 27l7 47v129l-7 13l21 14h47q7 0 7 -7q33 9 33 20l-67 7h-34q-49 42 -372 548q12 7 27 7l-7 33h41l34 7
q0 14 -14 14h-74l-47 54h-75q-10 0 -27 27q81 7 81 20q-162 223 -162 250zM431 729v-7h13v7h-13zM289 681l6 -13l-13 -7l-7 13zM343 681h6v-20h-20v7q2 13 14 13z" />
    <glyph glyph-name="Thorn" unicode="&#xde;" horiz-adv-x="1120" 
 />
    <glyph glyph-name="germandbls" unicode="&#xdf;" horiz-adv-x="1251" 
 />
    <glyph glyph-name="agrave" unicode="&#xe0;" horiz-adv-x="1351" 
d="M519 1643h399q12 -2 109 -284l20 -13h68q18 -14 162 -434l48 -135l-14 -7h-156v-7q0 -36 41 -40l41 6h6q29 -15 190 -514l-14 -7q-23 7 -27 7q-6 0 -6 -7l-48 7h-34q-13 -2 -13 -14q36 -108 47 -108h136q13 -2 13 -14v-6q0 -14 -13 -14h-149q-16 0 -27 7q-12 -7 -28 -7
h-142l-47 7l-7 -14q2 -13 14 -13h406q20 0 88 -224v-7h-508q-11 0 -81 231h-359q-15 0 -27 6q-12 -6 -27 -6q-14 0 -14 13q7 0 7 7q125 7 183 7h217q13 0 13 13l-20 14h-136q-8 0 -40 61h-54v-7q0 -6 6 -54h-61q-7 0 -47 61h-393q-39 0 -47 -54l13 -7h115q14 -2 14 -14v-6
l-88 -265h-515v7l95 271l-203 7q-14 0 -14 13q34 109 48 109h183q49 0 67 115q12 1 68 169l75 217v7h-68q-14 63 -5 44q-9 10 181 10q10 2 108 277l95 278v7h-34v7q51 173 109 291zM736 1054q-73 -284 -102 -284h-156q-13 0 -20 -41h41q40 -4 40 -20q-68 -209 -68 -217
l34 -6l48 6q13 -6 20 -6l41 6q6 0 6 -6l34 6h115q7 0 7 -6q68 6 68 20v7q-25 45 -61 176q0 35 -61 40q0 17 -14 34q3 14 14 14h115q-34 124 -88 277h-13z" />
    <glyph glyph-name="aacute" unicode="&#xe1;" horiz-adv-x="1351" 
d="M519 1643h399q12 -2 109 -284l20 -13h68q18 -14 162 -434l48 -135l-14 -7h-156v-7q0 -36 41 -40l41 6h6q29 -15 190 -514l-14 -7q-23 7 -27 7q-6 0 -6 -7l-48 7h-34q-13 -2 -13 -14q36 -108 47 -108h136q13 -2 13 -14v-6q0 -14 -13 -14h-149q-16 0 -27 7q-12 -7 -28 -7
h-142l-47 7l-7 -14q2 -13 14 -13h406q20 0 88 -224v-7h-508q-11 0 -81 231h-359q-15 0 -27 6q-12 -6 -27 -6q-14 0 -14 13q7 0 7 7q125 7 183 7h217q13 0 13 13l-20 14h-136q-8 0 -40 61h-54v-7q0 -6 6 -54h-61q-7 0 -47 61h-393q-39 0 -47 -54l13 -7h115q14 -2 14 -14v-6
l-88 -265h-515v7l95 271l-203 7q-14 0 -14 13q34 109 48 109h183q49 0 67 115q12 1 68 169l75 217v7h-68q-14 63 -5 44q-9 10 181 10q10 2 108 277l95 278v7h-34v7q51 173 109 291zM736 1054q-73 -284 -102 -284h-156q-13 0 -20 -41h41q40 -4 40 -20q-68 -209 -68 -217
l34 -6l48 6q13 -6 20 -6l41 6q6 0 6 -6l34 6h115q7 0 7 -6q68 6 68 20v7q-25 45 -61 176q0 35 -61 40q0 17 -14 34q3 14 14 14h115q-34 124 -88 277h-13z" />
    <glyph glyph-name="acircumflex" unicode="&#xe2;" horiz-adv-x="1351" 
d="M519 1643h399q12 -2 109 -284l20 -13h68q18 -14 162 -434l48 -135l-14 -7h-156v-7q0 -36 41 -40l41 6h6q29 -15 190 -514l-14 -7q-23 7 -27 7q-6 0 -6 -7l-48 7h-34q-13 -2 -13 -14q36 -108 47 -108h136q13 -2 13 -14v-6q0 -14 -13 -14h-149q-16 0 -27 7q-12 -7 -28 -7
h-142l-47 7l-7 -14q2 -13 14 -13h406q20 0 88 -224v-7h-508q-11 0 -81 231h-359q-15 0 -27 6q-12 -6 -27 -6q-14 0 -14 13q7 0 7 7q125 7 183 7h217q13 0 13 13l-20 14h-136q-8 0 -40 61h-54v-7q0 -6 6 -54h-61q-7 0 -47 61h-393q-39 0 -47 -54l13 -7h115q14 -2 14 -14v-6
l-88 -265h-515v7l95 271l-203 7q-14 0 -14 13q34 109 48 109h183q49 0 67 115q12 1 68 169l75 217v7h-68q-14 63 -5 44q-9 10 181 10q10 2 108 277l95 278v7h-34v7q51 173 109 291zM736 1054q-73 -284 -102 -284h-156q-13 0 -20 -41h41q40 -4 40 -20q-68 -209 -68 -217
l34 -6l48 6q13 -6 20 -6l41 6q6 0 6 -6l34 6h115q7 0 7 -6q68 6 68 20v7q-25 45 -61 176q0 35 -61 40q0 17 -14 34q3 14 14 14h115q-34 124 -88 277h-13z" />
    <glyph glyph-name="atilde" unicode="&#xe3;" horiz-adv-x="1351" 
d="M519 1643h399q12 -2 109 -284l20 -13h68q18 -14 162 -434l48 -135l-14 -7h-156v-7q0 -36 41 -40l41 6h6q29 -15 190 -514l-14 -7q-23 7 -27 7q-6 0 -6 -7l-48 7h-34q-13 -2 -13 -14q36 -108 47 -108h136q13 -2 13 -14v-6q0 -14 -13 -14h-149q-16 0 -27 7q-12 -7 -28 -7
h-142l-47 7l-7 -14q2 -13 14 -13h406q20 0 88 -224v-7h-508q-11 0 -81 231h-359q-15 0 -27 6q-12 -6 -27 -6q-14 0 -14 13q7 0 7 7q125 7 183 7h217q13 0 13 13l-20 14h-136q-8 0 -40 61h-54v-7q0 -6 6 -54h-61q-7 0 -47 61h-393q-39 0 -47 -54l13 -7h115q14 -2 14 -14v-6
l-88 -265h-515v7l95 271l-203 7q-14 0 -14 13q34 109 48 109h183q49 0 67 115q12 1 68 169l75 217v7h-68q-14 63 -5 44q-9 10 181 10q10 2 108 277l95 278v7h-34v7q51 173 109 291zM736 1054q-73 -284 -102 -284h-156q-13 0 -20 -41h41q40 -4 40 -20q-68 -209 -68 -217
l34 -6l48 6q13 -6 20 -6l41 6q6 0 6 -6l34 6h115q7 0 7 -6q68 6 68 20v7q-25 45 -61 176q0 35 -61 40q0 17 -14 34q3 14 14 14h115q-34 124 -88 277h-13z" />
    <glyph glyph-name="adieresis" unicode="&#xe4;" horiz-adv-x="1351" 
d="M519 1643h399q12 -2 109 -284l20 -13h68q18 -14 162 -434l48 -135l-14 -7h-156v-7q0 -36 41 -40l41 6h6q29 -15 190 -514l-14 -7q-23 7 -27 7q-6 0 -6 -7l-48 7h-34q-13 -2 -13 -14q36 -108 47 -108h136q13 -2 13 -14v-6q0 -14 -13 -14h-149q-16 0 -27 7q-12 -7 -28 -7
h-142l-47 7l-7 -14q2 -13 14 -13h406q20 0 88 -224v-7h-508q-11 0 -81 231h-359q-15 0 -27 6q-12 -6 -27 -6q-14 0 -14 13q7 0 7 7q125 7 183 7h217q13 0 13 13l-20 14h-136q-8 0 -40 61h-54v-7q0 -6 6 -54h-61q-7 0 -47 61h-393q-39 0 -47 -54l13 -7h115q14 -2 14 -14v-6
l-88 -265h-515v7l95 271l-203 7q-14 0 -14 13q34 109 48 109h183q49 0 67 115q12 1 68 169l75 217v7h-68q-14 63 -5 44q-9 10 181 10q10 2 108 277l95 278v7h-34v7q51 173 109 291zM736 1054q-73 -284 -102 -284h-156q-13 0 -20 -41h41q40 -4 40 -20q-68 -209 -68 -217
l34 -6l48 6q13 -6 20 -6l41 6q6 0 6 -6l34 6h115q7 0 7 -6q68 6 68 20v7q-25 45 -61 176q0 35 -61 40q0 17 -14 34q3 14 14 14h115q-34 124 -88 277h-13z" />
    <glyph glyph-name="aring" unicode="&#xe5;" horiz-adv-x="1351" 
d="M519 1643h399q12 -2 109 -284l20 -13h68q18 -14 162 -434l48 -135l-14 -7h-156v-7q0 -36 41 -40l41 6h6q29 -15 190 -514l-14 -7q-23 7 -27 7q-6 0 -6 -7l-48 7h-34q-13 -2 -13 -14q36 -108 47 -108h136q13 -2 13 -14v-6q0 -14 -13 -14h-149q-16 0 -27 7q-12 -7 -28 -7
h-142l-47 7l-7 -14q2 -13 14 -13h406q20 0 88 -224v-7h-508q-11 0 -81 231h-359q-15 0 -27 6q-12 -6 -27 -6q-14 0 -14 13q7 0 7 7q125 7 183 7h217q13 0 13 13l-20 14h-136q-8 0 -40 61h-54v-7q0 -6 6 -54h-61q-7 0 -47 61h-393q-39 0 -47 -54l13 -7h115q14 -2 14 -14v-6
l-88 -265h-515v7l95 271l-203 7q-14 0 -14 13q34 109 48 109h183q49 0 67 115q12 1 68 169l75 217v7h-68q-14 63 -5 44q-9 10 181 10q10 2 108 277l95 278v7h-34v7q51 173 109 291zM736 1054q-73 -284 -102 -284h-156q-13 0 -20 -41h41q40 -4 40 -20q-68 -209 -68 -217
l34 -6l48 6q13 -6 20 -6l41 6q6 0 6 -6l34 6h115q7 0 7 -6q68 6 68 20v7q-25 45 -61 176q0 35 -61 40q0 17 -14 34q3 14 14 14h115q-34 124 -88 277h-13z" />
    <glyph glyph-name="ae" unicode="&#xe6;" horiz-adv-x="1454" 
 />
    <glyph glyph-name="ccedilla" unicode="&#xe7;" horiz-adv-x="905" 
 />
    <glyph glyph-name="egrave" unicode="&#xe8;" horiz-adv-x="1248" 
d="M228 1644h962q9 0 20 -20v-231q0 -9 20 -20h27q16 0 28 7q33 -9 33 -20v-14q0 -13 -13 -13h-34v-34q0 -14 -14 -14h-467q-71 0 -216 -7v-61q2 -13 13 -13h61q14 -2 14 -14v-291h589q13 -2 13 -13v-102q0 -13 -74 -20l-14 7l-40 -7q-14 7 -21 7l-7 -34v-115l7 -68l-20 -14
h-576q0 -23 -47 -27l-41 7h-13q-14 -2 -14 -14v-6h41l68 -7v-224q0 -36 40 -40q0 -15 7 -27q-7 -12 -7 -27v-7h644q13 0 20 -68h101q14 -2 14 -13q0 -14 -14 -14h-74l-34 -7v-257h-1110q-7 0 -7 7l-14 -7h-40q-10 0 -21 20v14q0 7 7 7l-7 13v163l-34 6h-60q-14 0 -14 14v14
q2 13 14 13q113 7 176 7h27v13l-68 7h-27q-14 0 -14 20l7 14q-7 12 -7 27q0 9 41 20q7 12 7 28q0 29 -48 33v231l7 13l-13 7h-88q-14 0 -14 13q2 14 14 14h81q13 0 13 14v223q0 14 21 14t128 6v413q0 21 -74 21h-14v108l48 27v14q0 13 -14 13h-81q-14 0 -14 14v237l7 13
q136 7 203 7zM-29 831h34q13 -2 13 -13v-34q0 -13 -13 -13h-34q-14 0 -14 13v34q3 13 14 13zM215 80h61v13h-48q-13 -2 -13 -13zM946 73v-27q2 -14 14 -14h94q0 8 7 21q-7 13 -7 20h-108z" />
    <glyph glyph-name="eacute" unicode="&#xe9;" horiz-adv-x="1248" 
d="M228 1644h962q9 0 20 -20v-231q0 -9 20 -20h27q16 0 28 7q33 -9 33 -20v-14q0 -13 -13 -13h-34v-34q0 -14 -14 -14h-467q-71 0 -216 -7v-61q2 -13 13 -13h61q14 -2 14 -14v-291h589q13 -2 13 -13v-102q0 -13 -74 -20l-14 7l-40 -7q-14 7 -21 7l-7 -34v-115l7 -68l-20 -14
h-576q0 -23 -47 -27l-41 7h-13q-14 -2 -14 -14v-6h41l68 -7v-224q0 -36 40 -40q0 -15 7 -27q-7 -12 -7 -27v-7h644q13 0 20 -68h101q14 -2 14 -13q0 -14 -14 -14h-74l-34 -7v-257h-1110q-7 0 -7 7l-14 -7h-40q-10 0 -21 20v14q0 7 7 7l-7 13v163l-34 6h-60q-14 0 -14 14v14
q2 13 14 13q113 7 176 7h27v13l-68 7h-27q-14 0 -14 20l7 14q-7 12 -7 27q0 9 41 20q7 12 7 28q0 29 -48 33v231l7 13l-13 7h-88q-14 0 -14 13q2 14 14 14h81q13 0 13 14v223q0 14 21 14t128 6v413q0 21 -74 21h-14v108l48 27v14q0 13 -14 13h-81q-14 0 -14 14v237l7 13
q136 7 203 7zM-29 831h34q13 -2 13 -13v-34q0 -13 -13 -13h-34q-14 0 -14 13v34q3 13 14 13zM215 80h61v13h-48q-13 -2 -13 -13zM946 73v-27q2 -14 14 -14h94q0 8 7 21q-7 13 -7 20h-108z" />
    <glyph glyph-name="ecircumflex" unicode="&#xea;" horiz-adv-x="1248" 
d="M228 1644h962q9 0 20 -20v-231q0 -9 20 -20h27q16 0 28 7q33 -9 33 -20v-14q0 -13 -13 -13h-34v-34q0 -14 -14 -14h-467q-71 0 -216 -7v-61q2 -13 13 -13h61q14 -2 14 -14v-291h589q13 -2 13 -13v-102q0 -13 -74 -20l-14 7l-40 -7q-14 7 -21 7l-7 -34v-115l7 -68l-20 -14
h-576q0 -23 -47 -27l-41 7h-13q-14 -2 -14 -14v-6h41l68 -7v-224q0 -36 40 -40q0 -15 7 -27q-7 -12 -7 -27v-7h644q13 0 20 -68h101q14 -2 14 -13q0 -14 -14 -14h-74l-34 -7v-257h-1110q-7 0 -7 7l-14 -7h-40q-10 0 -21 20v14q0 7 7 7l-7 13v163l-34 6h-60q-14 0 -14 14v14
q2 13 14 13q113 7 176 7h27v13l-68 7h-27q-14 0 -14 20l7 14q-7 12 -7 27q0 9 41 20q7 12 7 28q0 29 -48 33v231l7 13l-13 7h-88q-14 0 -14 13q2 14 14 14h81q13 0 13 14v223q0 14 21 14t128 6v413q0 21 -74 21h-14v108l48 27v14q0 13 -14 13h-81q-14 0 -14 14v237l7 13
q136 7 203 7zM-29 831h34q13 -2 13 -13v-34q0 -13 -13 -13h-34q-14 0 -14 13v34q3 13 14 13zM215 80h61v13h-48q-13 -2 -13 -13zM946 73v-27q2 -14 14 -14h94q0 8 7 21q-7 13 -7 20h-108z" />
    <glyph glyph-name="edieresis" unicode="&#xeb;" horiz-adv-x="1248" 
d="M228 1644h962q9 0 20 -20v-231q0 -9 20 -20h27q16 0 28 7q33 -9 33 -20v-14q0 -13 -13 -13h-34v-34q0 -14 -14 -14h-467q-71 0 -216 -7v-61q2 -13 13 -13h61q14 -2 14 -14v-291h589q13 -2 13 -13v-102q0 -13 -74 -20l-14 7l-40 -7q-14 7 -21 7l-7 -34v-115l7 -68l-20 -14
h-576q0 -23 -47 -27l-41 7h-13q-14 -2 -14 -14v-6h41l68 -7v-224q0 -36 40 -40q0 -15 7 -27q-7 -12 -7 -27v-7h644q13 0 20 -68h101q14 -2 14 -13q0 -14 -14 -14h-74l-34 -7v-257h-1110q-7 0 -7 7l-14 -7h-40q-10 0 -21 20v14q0 7 7 7l-7 13v163l-34 6h-60q-14 0 -14 14v14
q2 13 14 13q113 7 176 7h27v13l-68 7h-27q-14 0 -14 20l7 14q-7 12 -7 27q0 9 41 20q7 12 7 28q0 29 -48 33v231l7 13l-13 7h-88q-14 0 -14 13q2 14 14 14h81q13 0 13 14v223q0 14 21 14t128 6v413q0 21 -74 21h-14v108l48 27v14q0 13 -14 13h-81q-14 0 -14 14v237l7 13
q136 7 203 7zM-29 831h34q13 -2 13 -13v-34q0 -13 -13 -13h-34q-14 0 -14 13v34q3 13 14 13zM215 80h61v13h-48q-13 -2 -13 -13zM946 73v-27q2 -14 14 -14h94q0 8 7 21q-7 13 -7 20h-108z" />
    <glyph glyph-name="igrave" unicode="&#xec;" horiz-adv-x="657" 
d="M55 1641h467q14 0 21 -74h74q14 -3 14 -14l-21 -14q-23 7 -27 7q-12 -7 -27 -7v7q-13 -7 -20 -7v-799q0 -16 54 -20q12 7 27 7q0 -3 14 -20v-21q0 -9 -21 -20h-40q-21 0 -21 7l-33 -7h-68q-14 -2 -14 -14v-27q2 -13 14 -13h142v-474q0 -15 7 -27q-11 -34 -41 -34
q0 7 -7 7l-6 -14v-196q2 -14 13 -14q12 7 27 7q14 -25 14 -54l-14 -7h-298q-57 0 -182 7v40l-48 27q0 7 -7 7l7 48v40q0 16 -7 27q7 12 7 27v34q0 13 -61 34q-7 13 -7 20q11 28 21 28h27q12 0 20 -61h34q14 0 14 13v501q0 14 -14 14q-119 7 -142 7l-7 13v20q0 10 20 21
q7 0 7 -7l14 7h142q13 0 13 13v21l-13 20l-48 -7h-13q-10 0 -20 20v786l6 13q-10 7 -40 7v14h34v67q2 14 13 14zM89 1553q2 -14 14 -14h13q14 0 14 14t-14 14h-13q-14 -3 -14 -14z" />
    <glyph glyph-name="iacute" unicode="&#xed;" horiz-adv-x="657" 
d="M55 1641h467q14 0 21 -74h74q14 -3 14 -14l-21 -14q-23 7 -27 7q-12 -7 -27 -7v7q-13 -7 -20 -7v-799q0 -16 54 -20q12 7 27 7q0 -3 14 -20v-21q0 -9 -21 -20h-40q-21 0 -21 7l-33 -7h-68q-14 -2 -14 -14v-27q2 -13 14 -13h142v-474q0 -15 7 -27q-11 -34 -41 -34
q0 7 -7 7l-6 -14v-196q2 -14 13 -14q12 7 27 7q14 -25 14 -54l-14 -7h-298q-57 0 -182 7v40l-48 27q0 7 -7 7l7 48v40q0 16 -7 27q7 12 7 27v34q0 13 -61 34q-7 13 -7 20q11 28 21 28h27q12 0 20 -61h34q14 0 14 13v501q0 14 -14 14q-119 7 -142 7l-7 13v20q0 10 20 21
q7 0 7 -7l14 7h142q13 0 13 13v21l-13 20l-48 -7h-13q-10 0 -20 20v786l6 13q-10 7 -40 7v14h34v67q2 14 13 14zM89 1553q2 -14 14 -14h13q14 0 14 14t-14 14h-13q-14 -3 -14 -14z" />
    <glyph glyph-name="icircumflex" unicode="&#xee;" horiz-adv-x="657" 
d="M55 1641h467q14 0 21 -74h74q14 -3 14 -14l-21 -14q-23 7 -27 7q-12 -7 -27 -7v7q-13 -7 -20 -7v-799q0 -16 54 -20q12 7 27 7q0 -3 14 -20v-21q0 -9 -21 -20h-40q-21 0 -21 7l-33 -7h-68q-14 -2 -14 -14v-27q2 -13 14 -13h142v-474q0 -15 7 -27q-11 -34 -41 -34
q0 7 -7 7l-6 -14v-196q2 -14 13 -14q12 7 27 7q14 -25 14 -54l-14 -7h-298q-57 0 -182 7v40l-48 27q0 7 -7 7l7 48v40q0 16 -7 27q7 12 7 27v34q0 13 -61 34q-7 13 -7 20q11 28 21 28h27q12 0 20 -61h34q14 0 14 13v501q0 14 -14 14q-119 7 -142 7l-7 13v20q0 10 20 21
q7 0 7 -7l14 7h142q13 0 13 13v21l-13 20l-48 -7h-13q-10 0 -20 20v786l6 13q-10 7 -40 7v14h34v67q2 14 13 14zM89 1553q2 -14 14 -14h13q14 0 14 14t-14 14h-13q-14 -3 -14 -14z" />
    <glyph glyph-name="idieresis" unicode="&#xef;" horiz-adv-x="657" 
d="M55 1641h467q14 0 21 -74h74q14 -3 14 -14l-21 -14q-23 7 -27 7q-12 -7 -27 -7v7q-13 -7 -20 -7v-799q0 -16 54 -20q12 7 27 7q0 -3 14 -20v-21q0 -9 -21 -20h-40q-21 0 -21 7l-33 -7h-68q-14 -2 -14 -14v-27q2 -13 14 -13h142v-474q0 -15 7 -27q-11 -34 -41 -34
q0 7 -7 7l-6 -14v-196q2 -14 13 -14q12 7 27 7q14 -25 14 -54l-14 -7h-298q-57 0 -182 7v40l-48 27q0 7 -7 7l7 48v40q0 16 -7 27q7 12 7 27v34q0 13 -61 34q-7 13 -7 20q11 28 21 28h27q12 0 20 -61h34q14 0 14 13v501q0 14 -14 14q-119 7 -142 7l-7 13v20q0 10 20 21
q7 0 7 -7l14 7h142q13 0 13 13v21l-13 20l-48 -7h-13q-10 0 -20 20v786l6 13q-10 7 -40 7v14h34v67q2 14 13 14zM89 1553q2 -14 14 -14h13q14 0 14 14t-14 14h-13q-14 -3 -14 -14z" />
    <glyph glyph-name="eth" unicode="&#xf0;" horiz-adv-x="1139" 
 />
    <glyph glyph-name="ntilde" unicode="&#xf1;" horiz-adv-x="1108" 
 />
    <glyph glyph-name="ograve" unicode="&#xf2;" horiz-adv-x="1938" 
d="M1032 1641q233 0 394 -99q-12 -6 -26 -6v-13q24 0 183 -125q39 0 79 -26h73l32 -7v-7q0 -13 -13 -13h-33q-6 0 -6 7q-11 -7 -33 -7v-6q149 -166 223 -447l-19 -13h-158v-7q97 0 112 -6q11 6 33 6h13q26 0 26 -125q2 -13 13 -13h66q6 0 6 -6l14 6h6q40 -4 40 -19
q0 -219 -125 -441l-13 -6h-125l-27 -20h-65q-13 -2 -13 -13q72 0 72 -7q-153 -252 -473 -374q-156 -40 -283 -40h-72q-77 0 -105 14q-13 -7 -20 -7q-289 49 -453 191q-127 107 -204 216q-11 7 -26 7h-59v13h65q0 20 14 20h85l33 6q-102 194 -112 355v20l7 13q6 0 6 -7
q99 7 145 7h98v7q0 13 -13 13h-236q-8 0 -33 46h-112q-13 0 -13 13t53 20v26q-7 0 -20 6q-13 -6 -20 -6q-6 13 -6 20q19 228 170 459q58 79 106 79q85 0 85 20q-22 13 -39 13h-7l-33 -6l-6 13l6 13q-26 0 -26 13q49 43 184 125h72q176 105 513 105zM486 820v-13l40 -27v-13
q0 -13 -14 -13h-32v-20h118q11 0 20 -46q141 -6 210 -6h52v-13q0 -14 -13 -14q-12 7 -19 7t-7 -7l-33 7q-24 0 -184 -7v-32q32 -161 164 -290q73 -50 73 -59l-13 -6h-92l6 -13v-7h-39v-13h79q117 -33 157 -33q38 0 125 20q0 13 -13 13h-33v13h72q7 0 92 20h66q15 0 26 6
q13 -6 20 -6q129 55 230 243q39 132 39 151v53q0 11 -65 19l-13 -6h-46q-27 0 -27 131l-32 7h-224v13q99 6 145 6h98v7q-62 175 -197 269q-149 92 -243 92q-275 0 -447 -282q-46 -116 -46 -151zM33 682h72q13 -2 13 -13l-13 -7h-72v20zM1649 655l-6 -13v-6h6q0 13 13 13v6
h-13zM841 557h7q13 -2 13 -13v-20q0 -13 -13 -13h-7q-13 0 -13 13v20q2 13 13 13zM72 485h40l6 -33l-19 -13h-20q-13 0 -20 39z" />
    <glyph glyph-name="oacute" unicode="&#xf3;" horiz-adv-x="1938" 
d="M1032 1641q233 0 394 -99q-12 -6 -26 -6v-13q24 0 183 -125q39 0 79 -26h73l32 -7v-7q0 -13 -13 -13h-33q-6 0 -6 7q-11 -7 -33 -7v-6q149 -166 223 -447l-19 -13h-158v-7q97 0 112 -6q11 6 33 6h13q26 0 26 -125q2 -13 13 -13h66q6 0 6 -6l14 6h6q40 -4 40 -19
q0 -219 -125 -441l-13 -6h-125l-27 -20h-65q-13 -2 -13 -13q72 0 72 -7q-153 -252 -473 -374q-156 -40 -283 -40h-72q-77 0 -105 14q-13 -7 -20 -7q-289 49 -453 191q-127 107 -204 216q-11 7 -26 7h-59v13h65q0 20 14 20h85l33 6q-102 194 -112 355v20l7 13q6 0 6 -7
q99 7 145 7h98v7q0 13 -13 13h-236q-8 0 -33 46h-112q-13 0 -13 13t53 20v26q-7 0 -20 6q-13 -6 -20 -6q-6 13 -6 20q19 228 170 459q58 79 106 79q85 0 85 20q-22 13 -39 13h-7l-33 -6l-6 13l6 13q-26 0 -26 13q49 43 184 125h72q176 105 513 105zM486 820v-13l40 -27v-13
q0 -13 -14 -13h-32v-20h118q11 0 20 -46q141 -6 210 -6h52v-13q0 -14 -13 -14q-12 7 -19 7t-7 -7l-33 7q-24 0 -184 -7v-32q32 -161 164 -290q73 -50 73 -59l-13 -6h-92l6 -13v-7h-39v-13h79q117 -33 157 -33q38 0 125 20q0 13 -13 13h-33v13h72q7 0 92 20h66q15 0 26 6
q13 -6 20 -6q129 55 230 243q39 132 39 151v53q0 11 -65 19l-13 -6h-46q-27 0 -27 131l-32 7h-224v13q99 6 145 6h98v7q-62 175 -197 269q-149 92 -243 92q-275 0 -447 -282q-46 -116 -46 -151zM33 682h72q13 -2 13 -13l-13 -7h-72v20zM1649 655l-6 -13v-6h6q0 13 13 13v6
h-13zM841 557h7q13 -2 13 -13v-20q0 -13 -13 -13h-7q-13 0 -13 13v20q2 13 13 13zM72 485h40l6 -33l-19 -13h-20q-13 0 -20 39z" />
    <glyph glyph-name="ocircumflex" unicode="&#xf4;" horiz-adv-x="1938" 
d="M1032 1641q233 0 394 -99q-12 -6 -26 -6v-13q24 0 183 -125q39 0 79 -26h73l32 -7v-7q0 -13 -13 -13h-33q-6 0 -6 7q-11 -7 -33 -7v-6q149 -166 223 -447l-19 -13h-158v-7q97 0 112 -6q11 6 33 6h13q26 0 26 -125q2 -13 13 -13h66q6 0 6 -6l14 6h6q40 -4 40 -19
q0 -219 -125 -441l-13 -6h-125l-27 -20h-65q-13 -2 -13 -13q72 0 72 -7q-153 -252 -473 -374q-156 -40 -283 -40h-72q-77 0 -105 14q-13 -7 -20 -7q-289 49 -453 191q-127 107 -204 216q-11 7 -26 7h-59v13h65q0 20 14 20h85l33 6q-102 194 -112 355v20l7 13q6 0 6 -7
q99 7 145 7h98v7q0 13 -13 13h-236q-8 0 -33 46h-112q-13 0 -13 13t53 20v26q-7 0 -20 6q-13 -6 -20 -6q-6 13 -6 20q19 228 170 459q58 79 106 79q85 0 85 20q-22 13 -39 13h-7l-33 -6l-6 13l6 13q-26 0 -26 13q49 43 184 125h72q176 105 513 105zM486 820v-13l40 -27v-13
q0 -13 -14 -13h-32v-20h118q11 0 20 -46q141 -6 210 -6h52v-13q0 -14 -13 -14q-12 7 -19 7t-7 -7l-33 7q-24 0 -184 -7v-32q32 -161 164 -290q73 -50 73 -59l-13 -6h-92l6 -13v-7h-39v-13h79q117 -33 157 -33q38 0 125 20q0 13 -13 13h-33v13h72q7 0 92 20h66q15 0 26 6
q13 -6 20 -6q129 55 230 243q39 132 39 151v53q0 11 -65 19l-13 -6h-46q-27 0 -27 131l-32 7h-224v13q99 6 145 6h98v7q-62 175 -197 269q-149 92 -243 92q-275 0 -447 -282q-46 -116 -46 -151zM33 682h72q13 -2 13 -13l-13 -7h-72v20zM1649 655l-6 -13v-6h6q0 13 13 13v6
h-13zM841 557h7q13 -2 13 -13v-20q0 -13 -13 -13h-7q-13 0 -13 13v20q2 13 13 13zM72 485h40l6 -33l-19 -13h-20q-13 0 -20 39z" />
    <glyph glyph-name="otilde" unicode="&#xf5;" horiz-adv-x="1938" 
d="M1032 1641q233 0 394 -99q-12 -6 -26 -6v-13q24 0 183 -125q39 0 79 -26h73l32 -7v-7q0 -13 -13 -13h-33q-6 0 -6 7q-11 -7 -33 -7v-6q149 -166 223 -447l-19 -13h-158v-7q97 0 112 -6q11 6 33 6h13q26 0 26 -125q2 -13 13 -13h66q6 0 6 -6l14 6h6q40 -4 40 -19
q0 -219 -125 -441l-13 -6h-125l-27 -20h-65q-13 -2 -13 -13q72 0 72 -7q-153 -252 -473 -374q-156 -40 -283 -40h-72q-77 0 -105 14q-13 -7 -20 -7q-289 49 -453 191q-127 107 -204 216q-11 7 -26 7h-59v13h65q0 20 14 20h85l33 6q-102 194 -112 355v20l7 13q6 0 6 -7
q99 7 145 7h98v7q0 13 -13 13h-236q-8 0 -33 46h-112q-13 0 -13 13t53 20v26q-7 0 -20 6q-13 -6 -20 -6q-6 13 -6 20q19 228 170 459q58 79 106 79q85 0 85 20q-22 13 -39 13h-7l-33 -6l-6 13l6 13q-26 0 -26 13q49 43 184 125h72q176 105 513 105zM486 820v-13l40 -27v-13
q0 -13 -14 -13h-32v-20h118q11 0 20 -46q141 -6 210 -6h52v-13q0 -14 -13 -14q-12 7 -19 7t-7 -7l-33 7q-24 0 -184 -7v-32q32 -161 164 -290q73 -50 73 -59l-13 -6h-92l6 -13v-7h-39v-13h79q117 -33 157 -33q38 0 125 20q0 13 -13 13h-33v13h72q7 0 92 20h66q15 0 26 6
q13 -6 20 -6q129 55 230 243q39 132 39 151v53q0 11 -65 19l-13 -6h-46q-27 0 -27 131l-32 7h-224v13q99 6 145 6h98v7q-62 175 -197 269q-149 92 -243 92q-275 0 -447 -282q-46 -116 -46 -151zM33 682h72q13 -2 13 -13l-13 -7h-72v20zM1649 655l-6 -13v-6h6q0 13 13 13v6
h-13zM841 557h7q13 -2 13 -13v-20q0 -13 -13 -13h-7q-13 0 -13 13v20q2 13 13 13zM72 485h40l6 -33l-19 -13h-20q-13 0 -20 39z" />
    <glyph glyph-name="odieresis" unicode="&#xf6;" horiz-adv-x="1938" 
d="M1032 1641q233 0 394 -99q-12 -6 -26 -6v-13q24 0 183 -125q39 0 79 -26h73l32 -7v-7q0 -13 -13 -13h-33q-6 0 -6 7q-11 -7 -33 -7v-6q149 -166 223 -447l-19 -13h-158v-7q97 0 112 -6q11 6 33 6h13q26 0 26 -125q2 -13 13 -13h66q6 0 6 -6l14 6h6q40 -4 40 -19
q0 -219 -125 -441l-13 -6h-125l-27 -20h-65q-13 -2 -13 -13q72 0 72 -7q-153 -252 -473 -374q-156 -40 -283 -40h-72q-77 0 -105 14q-13 -7 -20 -7q-289 49 -453 191q-127 107 -204 216q-11 7 -26 7h-59v13h65q0 20 14 20h85l33 6q-102 194 -112 355v20l7 13q6 0 6 -7
q99 7 145 7h98v7q0 13 -13 13h-236q-8 0 -33 46h-112q-13 0 -13 13t53 20v26q-7 0 -20 6q-13 -6 -20 -6q-6 13 -6 20q19 228 170 459q58 79 106 79q85 0 85 20q-22 13 -39 13h-7l-33 -6l-6 13l6 13q-26 0 -26 13q49 43 184 125h72q176 105 513 105zM486 820v-13l40 -27v-13
q0 -13 -14 -13h-32v-20h118q11 0 20 -46q141 -6 210 -6h52v-13q0 -14 -13 -14q-12 7 -19 7t-7 -7l-33 7q-24 0 -184 -7v-32q32 -161 164 -290q73 -50 73 -59l-13 -6h-92l6 -13v-7h-39v-13h79q117 -33 157 -33q38 0 125 20q0 13 -13 13h-33v13h72q7 0 92 20h66q15 0 26 6
q13 -6 20 -6q129 55 230 243q39 132 39 151v53q0 11 -65 19l-13 -6h-46q-27 0 -27 131l-32 7h-224v13q99 6 145 6h98v7q-62 175 -197 269q-149 92 -243 92q-275 0 -447 -282q-46 -116 -46 -151zM33 682h72q13 -2 13 -13l-13 -7h-72v20zM1649 655l-6 -13v-6h6q0 13 13 13v6
h-13zM841 557h7q13 -2 13 -13v-20q0 -13 -13 -13h-7q-13 0 -13 13v20q2 13 13 13zM72 485h40l6 -33l-19 -13h-20q-13 0 -20 39z" />
    <glyph glyph-name="divide" unicode="&#xf7;" 
 />
    <glyph glyph-name="oslash" unicode="&#xf8;" horiz-adv-x="1010" 
 />
    <glyph glyph-name="ugrave" unicode="&#xf9;" horiz-adv-x="1661" 
d="M47 1641h459q14 -2 14 -13v-480h126q14 -2 14 -13v-7q-90 -7 -134 -7h-6v-46l-34 -27v-40q23 0 47 -33h80q13 -2 13 -14v-346q0 -13 -13 -13q-7 0 -7 6q-11 -6 -26 -6v-14q0 -15 6 -26q0 -60 -60 -60v-7l47 -6l27 6q26 0 40 -100q20 -15 20 -46l-27 -14q-36 7 -60 7h-7
q0 -65 153 -147q38 -20 147 -26q142 41 227 160q2 13 13 13h53q56 0 73 67l7 33v113q0 47 13 73q-13 0 -13 14v280l7 33q-29 20 -94 20q0 -7 -6 -7q0 36 -47 40v40l40 27q0 53 13 53h120v13q-90 7 -133 7v480q2 13 13 13h453q14 -2 14 -13v-467q2 -13 13 -13h113
q14 -2 14 -13q-34 -14 -120 -14h-14q0 -60 -39 -60v-53q33 0 33 -13l-7 -14l33 -6h67l20 -14l-7 -33v-493q0 -15 7 -26q-7 -67 -20 -67h-80q-22 0 -46 -120q-46 -127 -227 -273q13 -2 13 -13v-7q-219 -113 -406 -113q-28 0 -53 -7q-278 0 -500 100q-61 40 -120 47
q-180 124 -240 313l-13 66l13 7h74q9 0 20 20l-7 93q7 13 7 20l-20 14h-80q-14 0 -14 13l14 6h46v80l47 27q0 40 7 40l-7 47v120q0 24 7 60q-7 8 -7 46v14q0 6 7 6q0 18 -40 27q-13 -7 -20 -7v7l-14 -7h-26q-18 33 -27 33h-13v20l-7 34q40 0 40 73h133v13q-99 7 -133 7
l-7 13v467q2 13 14 13zM1312 695q0 -13 -13 -13v-7h13l7 13v7h-7z" />
    <glyph glyph-name="uacute" unicode="&#xfa;" horiz-adv-x="1661" 
d="M47 1641h459q14 -2 14 -13v-480h126q14 -2 14 -13v-7q-90 -7 -134 -7h-6v-46l-34 -27v-40q23 0 47 -33h80q13 -2 13 -14v-346q0 -13 -13 -13q-7 0 -7 6q-11 -6 -26 -6v-14q0 -15 6 -26q0 -60 -60 -60v-7l47 -6l27 6q26 0 40 -100q20 -15 20 -46l-27 -14q-36 7 -60 7h-7
q0 -65 153 -147q38 -20 147 -26q142 41 227 160q2 13 13 13h53q56 0 73 67l7 33v113q0 47 13 73q-13 0 -13 14v280l7 33q-29 20 -94 20q0 -7 -6 -7q0 36 -47 40v40l40 27q0 53 13 53h120v13q-90 7 -133 7v480q2 13 13 13h453q14 -2 14 -13v-467q2 -13 13 -13h113
q14 -2 14 -13q-34 -14 -120 -14h-14q0 -60 -39 -60v-53q33 0 33 -13l-7 -14l33 -6h67l20 -14l-7 -33v-493q0 -15 7 -26q-7 -67 -20 -67h-80q-22 0 -46 -120q-46 -127 -227 -273q13 -2 13 -13v-7q-219 -113 -406 -113q-28 0 -53 -7q-278 0 -500 100q-61 40 -120 47
q-180 124 -240 313l-13 66l13 7h74q9 0 20 20l-7 93q7 13 7 20l-20 14h-80q-14 0 -14 13l14 6h46v80l47 27q0 40 7 40l-7 47v120q0 24 7 60q-7 8 -7 46v14q0 6 7 6q0 18 -40 27q-13 -7 -20 -7v7l-14 -7h-26q-18 33 -27 33h-13v20l-7 34q40 0 40 73h133v13q-99 7 -133 7
l-7 13v467q2 13 14 13zM1312 695q0 -13 -13 -13v-7h13l7 13v7h-7z" />
    <glyph glyph-name="ucircumflex" unicode="&#xfb;" horiz-adv-x="1661" 
d="M47 1641h459q14 -2 14 -13v-480h126q14 -2 14 -13v-7q-90 -7 -134 -7h-6v-46l-34 -27v-40q23 0 47 -33h80q13 -2 13 -14v-346q0 -13 -13 -13q-7 0 -7 6q-11 -6 -26 -6v-14q0 -15 6 -26q0 -60 -60 -60v-7l47 -6l27 6q26 0 40 -100q20 -15 20 -46l-27 -14q-36 7 -60 7h-7
q0 -65 153 -147q38 -20 147 -26q142 41 227 160q2 13 13 13h53q56 0 73 67l7 33v113q0 47 13 73q-13 0 -13 14v280l7 33q-29 20 -94 20q0 -7 -6 -7q0 36 -47 40v40l40 27q0 53 13 53h120v13q-90 7 -133 7v480q2 13 13 13h453q14 -2 14 -13v-467q2 -13 13 -13h113
q14 -2 14 -13q-34 -14 -120 -14h-14q0 -60 -39 -60v-53q33 0 33 -13l-7 -14l33 -6h67l20 -14l-7 -33v-493q0 -15 7 -26q-7 -67 -20 -67h-80q-22 0 -46 -120q-46 -127 -227 -273q13 -2 13 -13v-7q-219 -113 -406 -113q-28 0 -53 -7q-278 0 -500 100q-61 40 -120 47
q-180 124 -240 313l-13 66l13 7h74q9 0 20 20l-7 93q7 13 7 20l-20 14h-80q-14 0 -14 13l14 6h46v80l47 27q0 40 7 40l-7 47v120q0 24 7 60q-7 8 -7 46v14q0 6 7 6q0 18 -40 27q-13 -7 -20 -7v7l-14 -7h-26q-18 33 -27 33h-13v20l-7 34q40 0 40 73h133v13q-99 7 -133 7
l-7 13v467q2 13 14 13zM1312 695q0 -13 -13 -13v-7h13l7 13v7h-7z" />
    <glyph glyph-name="udieresis" unicode="&#xfc;" horiz-adv-x="1661" 
d="M47 1641h459q14 -2 14 -13v-480h126q14 -2 14 -13v-7q-90 -7 -134 -7h-6v-46l-34 -27v-40q23 0 47 -33h80q13 -2 13 -14v-346q0 -13 -13 -13q-7 0 -7 6q-11 -6 -26 -6v-14q0 -15 6 -26q0 -60 -60 -60v-7l47 -6l27 6q26 0 40 -100q20 -15 20 -46l-27 -14q-36 7 -60 7h-7
q0 -65 153 -147q38 -20 147 -26q142 41 227 160q2 13 13 13h53q56 0 73 67l7 33v113q0 47 13 73q-13 0 -13 14v280l7 33q-29 20 -94 20q0 -7 -6 -7q0 36 -47 40v40l40 27q0 53 13 53h120v13q-90 7 -133 7v480q2 13 13 13h453q14 -2 14 -13v-467q2 -13 13 -13h113
q14 -2 14 -13q-34 -14 -120 -14h-14q0 -60 -39 -60v-53q33 0 33 -13l-7 -14l33 -6h67l20 -14l-7 -33v-493q0 -15 7 -26q-7 -67 -20 -67h-80q-22 0 -46 -120q-46 -127 -227 -273q13 -2 13 -13v-7q-219 -113 -406 -113q-28 0 -53 -7q-278 0 -500 100q-61 40 -120 47
q-180 124 -240 313l-13 66l13 7h74q9 0 20 20l-7 93q7 13 7 20l-20 14h-80q-14 0 -14 13l14 6h46v80l47 27q0 40 7 40l-7 47v120q0 24 7 60q-7 8 -7 46v14q0 6 7 6q0 18 -40 27q-13 -7 -20 -7v7l-14 -7h-26q-18 33 -27 33h-13v20l-7 34q40 0 40 73h133v13q-99 7 -133 7
l-7 13v467q2 13 14 13zM1312 695q0 -13 -13 -13v-7h13l7 13v7h-7z" />
    <glyph glyph-name="yacute" unicode="&#xfd;" horiz-adv-x="1317" 
d="M-178 1641h527q63 -69 169 -257q-14 -6 -74 -13v-7q0 -10 20 -20h27l48 6q36 -59 47 -60h88v-21h-74v-6q6 -14 6 -21q-16 -13 -27 -13l115 -196h14q33 67 33 74q-16 0 -40 61q35 68 88 68q24 33 54 40l34 -7l33 7v14h-60q-14 0 -14 13q0 6 216 338h521q13 -2 13 -13
q-162 -223 -223 -338h61q14 -2 14 -14l-14 -7h-74l-41 -40h-40q-352 -537 -352 -548h88q14 -2 14 -13q-25 -14 -54 -14h-34l-14 7l-7 -14v-189l41 -27v-47q0 -14 -13 -14h-142v-7q15 0 27 -6q6 0 6 6l34 -6h108q14 -2 14 -14v-493l27 -27q0 -14 -20 -14q-7 0 -7 7l-34 -7
h-304q-7 0 -7 7q-7 0 -7 -7q-82 9 -94 14q0 -7 -7 -7q0 4 -34 34v480q0 9 -20 20h-102l-40 7q-13 -7 -20 -7v7l-14 -7h-7q-13 0 -13 13l13 7h149q14 0 14 14v47q0 9 -48 27l7 47v129l-7 13l21 14h47q7 0 7 -7q33 9 33 20l-67 7h-34q-49 42 -372 548q12 7 27 7l-7 33h41l34 7
q0 14 -14 14h-74l-47 54h-75q-10 0 -27 27q81 7 81 20q-162 223 -162 250zM431 729v-7h13v7h-13zM289 681l6 -13l-13 -7l-7 13zM343 681h6v-20h-20v7q2 13 14 13z" />
    <glyph glyph-name="thorn" unicode="&#xfe;" horiz-adv-x="1010" 
 />
    <glyph glyph-name="ydieresis" unicode="&#xff;" horiz-adv-x="1317" 
d="M-178 1641h527q63 -69 169 -257q-14 -6 -74 -13v-7q0 -10 20 -20h27l48 6q36 -59 47 -60h88v-21h-74v-6q6 -14 6 -21q-16 -13 -27 -13l115 -196h14q33 67 33 74q-16 0 -40 61q35 68 88 68q24 33 54 40l34 -7l33 7v14h-60q-14 0 -14 13q0 6 216 338h521q13 -2 13 -13
q-162 -223 -223 -338h61q14 -2 14 -14l-14 -7h-74l-41 -40h-40q-352 -537 -352 -548h88q14 -2 14 -13q-25 -14 -54 -14h-34l-14 7l-7 -14v-189l41 -27v-47q0 -14 -13 -14h-142v-7q15 0 27 -6q6 0 6 6l34 -6h108q14 -2 14 -14v-493l27 -27q0 -14 -20 -14q-7 0 -7 7l-34 -7
h-304q-7 0 -7 7q-7 0 -7 -7q-82 9 -94 14q0 -7 -7 -7q0 4 -34 34v480q0 9 -20 20h-102l-40 7q-13 -7 -20 -7v7l-14 -7h-7q-13 0 -13 13l13 7h149q14 0 14 14v47q0 9 -48 27l7 47v129l-7 13l21 14h47q7 0 7 -7q33 9 33 20l-67 7h-34q-49 42 -372 548q12 7 27 7l-7 33h41l34 7
q0 14 -14 14h-74l-47 54h-75q-10 0 -27 27q81 7 81 20q-162 223 -162 250zM431 729v-7h13v7h-13zM289 681l6 -13l-13 -7l-7 13zM343 681h6v-20h-20v7q2 13 14 13z" />
    <glyph glyph-name="dotlessi" unicode="&#x131;" horiz-adv-x="514" 
 />
    <glyph glyph-name="circumflex" unicode="&#x2c6;" horiz-adv-x="1024" 
 />
    <glyph glyph-name="caron" unicode="&#x2c7;" horiz-adv-x="1024" 
 />
    <glyph glyph-name="uni02C9" unicode="&#x2c9;" horiz-adv-x="1024" 
 />
    <glyph glyph-name="breve" unicode="&#x2d8;" horiz-adv-x="1024" 
 />
    <glyph glyph-name="dotaccent" unicode="&#x2d9;" horiz-adv-x="1024" 
 />
    <glyph glyph-name="ring" unicode="&#x2da;" horiz-adv-x="1024" 
 />
    <glyph glyph-name="ogonek" unicode="&#x2db;" horiz-adv-x="1024" 
 />
    <glyph glyph-name="tilde" unicode="&#x2dc;" horiz-adv-x="1024" 
 />
    <glyph glyph-name="hungarumlaut" unicode="&#x2dd;" horiz-adv-x="1024" 
 />
    <glyph glyph-name="endash" unicode="&#x2013;" horiz-adv-x="1108" 
 />
    <glyph glyph-name="emdash" unicode="&#x2014;" horiz-adv-x="2048" 
 />
    <glyph glyph-name="quoteleft" unicode="&#x2018;" horiz-adv-x="557" 
 />
    <glyph glyph-name="quoteright" unicode="&#x2019;" horiz-adv-x="557" 
 />
    <glyph glyph-name="quotesinglbase" unicode="&#x201a;" horiz-adv-x="557" 
 />
    <glyph glyph-name="quotedblleft" unicode="&#x201c;" horiz-adv-x="910" 
 />
    <glyph glyph-name="quotedblright" unicode="&#x201d;" horiz-adv-x="910" 
 />
    <glyph glyph-name="quotedblbase" unicode="&#x201e;" horiz-adv-x="910" 
 />
    <glyph glyph-name="dagger" unicode="&#x2020;" 
 />
    <glyph glyph-name="daggerdbl" unicode="&#x2021;" 
 />
    <glyph glyph-name="bullet" unicode="&#x2022;" horiz-adv-x="1024" 
 />
    <glyph glyph-name="ellipsis" unicode="&#x2026;" horiz-adv-x="2048" 
 />
    <glyph glyph-name="guilsinglleft" unicode="&#x2039;" horiz-adv-x="631" 
 />
    <glyph glyph-name="guilsinglright" unicode="&#x203a;" horiz-adv-x="631" 
 />
    <glyph glyph-name="fraction" unicode="&#x2044;" horiz-adv-x="342" 
 />
    <glyph glyph-name="fraction" unicode="&#x2215;" horiz-adv-x="342" 
 />
    <glyph glyph-name="franc" unicode="&#x20a3;" 
 />
    <glyph glyph-name="lira" unicode="&#x20a4;" 
 />
    <glyph glyph-name="peseta" unicode="&#x20a7;" horiz-adv-x="2028" 
 />
    <glyph glyph-name="Euro" unicode="&#x20ac;" 
 />
    <glyph glyph-name="uni2116" unicode="&#x2116;" horiz-adv-x="2271" 
 />
    <glyph glyph-name="trademark" unicode="&#x2122;" horiz-adv-x="2758" 
d="M88 1417h139q156 0 231 -115q29 0 37 -27q14 -31 14 -65q6 7 23 75q28 57 58 57q14 0 14 7q-24 0 -24 10q24 27 75 38q42 20 108 20h7q47 0 95 -20v-4l-4 -7q60 -37 75 -37h17v-7h-20q54 -71 54 -112v-3h-41v-3q20 0 24 -4q6 4 14 4q6 0 6 -21q17 0 17 7q0 37 27 88
q-5 4 -20 4q8 37 61 71h4v3h-34v4q36 36 122 37h10q75 0 142 -37q60 0 85 -44q27 -22 27 -41q-71 -44 -88 -44h-13q-57 71 -109 71q-10 0 -58 -17v-3q14 0 14 -7q-43 -41 -51 -88q-37 -4 -37 -11q40 0 40 -23q0 -34 31 -82h-17q0 -18 78 -37q102 22 102 41q-14 0 -14 3
q4 11 21 27h13q65 -30 82 -30q27 -7 27 -14v-3q0 -4 -27 -14q-11 -27 -44 -27q-7 -1 -7 -7q20 0 20 -7q-76 -64 -149 -64h-34q-97 0 -173 71h-24v7h17v3q-27 36 -27 45h-3q0 -11 -7 -11h-31q-7 -6 -27 -6v-4h14v-7q-68 -98 -194 -98q-131 0 -210 105h-3v4q0 6 33 6
q-27 55 -27 92l7 3h58v7h-61l-14 10h-24v7h11v3q0 4 -14 11l-7 -4h-20q0 -10 -7 -10h-17v-13h17q7 0 7 -11q0 -35 -31 -98h31v-7h-34q-27 -30 -31 -30h-37l-17 -4v-7h44v-6q-77 -58 -142 -58h-180q-7 0 -7 7v57h-41q-6 0 -6 7v4h47v23q0 7 34 7v4q-34 2 -34 10v95l-24 13
q26 16 51 21v91q-27 4 -27 10v102q1 7 7 7zM1438 1417h339q7 0 14 -34v-47q0 -7 -7 -7h-105v-58q-10 -17 -37 -17l24 -13q0 -14 3 -28q-6 -3 -14 -3v-98q0 -7 -10 -7v-4q27 0 27 -10v-125q0 -7 -6 -7h-109q-10 0 -10 54v82q-17 2 -17 10v102q0 6 20 6v7q-10 0 -10 7v20h-17
v7q12 0 27 10h4v58q0 7 -7 7h-102q-7 0 -7 7v57l-7 10v7q1 7 7 7zM2012 1417h6q48 0 95 -20v-4l-3 -7q59 -37 75 -37h17v-7h-21q54 -71 54 -112v-3h-40v-3q19 0 23 -4q6 4 14 4q7 0 10 -38h21v44q0 7 13 7v10h-17q-3 0 -17 17l10 14v108q0 7 11 7v17q1 7 6 7h187
q95 0 95 -27q58 -41 58 -112q-4 -35 -4 -41h7v-3q0 -44 -78 -85h-7l17 -27v-7q-7 0 -7 -7h-37v-7h41q41 -28 41 -33q-7 -1 -7 -7l51 -75q-7 -1 -7 -7q10 -3 10 -20h-129q-12 6 -17 20l7 4l-48 78q7 0 7 7q0 12 -47 33h-24v-91h20v-7h-20v-37q0 -7 -7 -7h-112q-7 0 -7 7v30
q1 7 7 7h17v7h-17q-7 0 -7 7v68h-3q0 -11 -7 -11h-30q-7 -6 -27 -6v-4h13v-7q-68 -98 -193 -98q-132 0 -211 105h-3v4q0 6 34 6q-27 55 -27 92l7 3h57v7h-61l-13 10h-24v7h10v3q0 7 -14 7q28 139 79 139q13 0 13 7q-24 0 -24 10q24 27 75 38q43 20 109 20zM2378 1329v-51
q0 -10 -14 -10v-10q14 0 14 -11h24v-3q0 -7 -14 -7v-17h58q24 0 57 27q-15 0 -20 4l4 7v27q0 28 -45 44h-64zM203 1319v-17h21q6 -1 6 -7v-85q-30 -17 -47 -17v-13h17l7 -4l-4 -24v-40l4 -21q-4 -6 -4 -10q4 -6 4 -10h30v-7h-30q0 -7 -4 -13l7 -4h24l78 17h24v4l-17 3h-11v7
q51 36 51 102h-17q-6 0 -6 6l30 17h20v4q-21 95 -74 95q-48 23 -75 23h-27q-7 -1 -7 -6zM634 1207q5 0 10 -11q-6 -3 -10 -3v-7h24l13 -10h58v-7q-3 0 -3 4l-7 -4h-51q0 -47 58 -88v-7h-21q-4 0 -10 -10q23 0 58 -7q11 0 61 17q56 0 78 51q9 0 14 51v10h-28q-10 0 -10 34
h-57v7h54q-39 92 -109 92q-81 0 -118 -95zM1883 1207q5 0 10 -11q-7 -3 -10 -3v-7h23l14 -10h58v-7q-4 0 -4 4l-7 -4h-50q0 -47 57 -88v-7h-20q-5 0 -10 -10q23 0 57 -7q12 0 61 17q56 0 78 51q10 0 14 51v10h-27q-10 0 -10 34h-58v7h54q-38 92 -108 92q-82 0 -119 -95z
M74 1302q7 -1 7 -7q0 -7 -7 -7q-6 0 -6 7q1 7 6 7zM1499 1254h7v-7h-7v7zM319 1203h10q7 -1 7 -7l-7 -3h-10q-7 0 -7 7zM990 1193q1 -7 7 -7h7v7h-14zM44 1193q7 -1 7 -7t-7 -6t-7 6q1 7 7 7zM1062 1186v-3h6v3h-6zM522 1176h17v-7h-17v7zM1771 1176h17v-7h-17v7zM719 1142
h10v-3q0 -7 -7 -7l-3 7v3zM1967 1142h11v-3q0 -7 -7 -7l-4 7v3zM2378 1115v-7h27q3 0 10 10q-7 11 -7 17h-13l-14 -20h-3zM532 1125h4q7 -1 7 -7l-7 -3h-4q-6 0 -6 7zM1781 1125h3q7 -1 7 -7l-7 -3h-3q-7 0 -7 7zM1014 1118q0 -5 -7 -27h21q-10 19 -10 27h-4zM2334 1108v-7
h34v7h-34zM1238 1095h10q7 -1 7 -7q-20 -17 -34 -17h-7v7q6 0 24 17zM420 867q51 0 120 -28v-8h-12q43 -28 92 -88q20 -1 20 -12q-43 -35 -120 -64h-8q-4 0 -52 56l4 8q-18 12 -76 20h-16q-42 0 -112 -60h-12v-8h60v-8h-52q-20 -54 -20 -80q4 -48 12 -64l-8 -4h-44
q44 -76 84 -76h28q75 -12 80 -12q72 12 100 40q32 37 32 48h-148q-8 0 -8 8v48q8 10 8 16l-4 20h184q34 0 108 4l12 -20v-4q-16 -17 -16 -64v-4h8v-4q0 -56 -52 -84q-81 -116 -216 -116h-28q-141 0 -236 124h-48q-32 44 -32 68q1 8 8 8h44q-8 41 -8 72q0 68 20 76h44v8h-52
v8q8 0 44 72q58 72 116 72q49 32 152 32zM688 867h132q5 0 20 -32v-36q0 -6 -16 -16h-20v-12q24 0 24 -8v-204q12 0 12 -8v-112q1 -8 8 -8h168q8 -1 8 -8v-60q0 -8 -8 -8h-4q-4 0 -4 4q-8 -4 -12 -4v-4q28 0 28 -8v-8q0 -8 -8 -8h-312q-5 0 -16 28q8 0 8 8v184l-16 16v208
h-16v8q8 0 32 12v44l-16 16v8q1 8 8 8zM1060 867h132q8 0 8 -24h16q0 24 8 24h400q8 0 16 -40v-60q45 48 60 48v4h-40v4q43 43 144 44h12q89 0 168 -44q70 0 100 -52q32 -25 32 -48q-84 -52 -104 -52h-16q-67 84 -128 84q-12 0 -68 -20v-4q16 0 16 -8q-50 -48 -60 -104
q-44 -4 -44 -12q48 0 48 -28q0 -40 36 -96h-20q0 -21 92 -44q120 25 120 48q-16 0 -16 4q4 13 24 32h16q76 -36 96 -36q32 -8 32 -16v-4q0 -5 -32 -16q-13 -32 -52 -32q-8 -1 -8 -8q24 0 24 -8q-90 -76 -176 -76h-40q-114 0 -204 84h-28v8h20v4q-26 35 -36 56q4 4 32 4
q-19 47 -32 108l4 8v4h-32q-8 0 -8 8q44 5 44 12q0 44 32 104q-6 4 -24 4q0 13 12 28v4h-128v-68q-11 -20 -44 -20l28 -16q0 -16 4 -32q-7 -4 -16 -4v-116q0 -8 -12 -8v-4q32 0 32 -12v-148q0 -8 -8 -8h-128q-12 0 -12 64v96q-20 3 -20 12v120q0 8 24 8v8q-12 0 -12 8v24
h-20v8q14 0 32 12h4v68q0 8 -8 8h-120q-8 0 -8 8v64h-24v-240h20q8 -1 8 -8q0 -8 -8 -8h-52v-16h40q8 -1 8 -8v-140q0 -8 -16 -8v-64q16 0 16 -8t-8 -8h-132q-19 24 -24 24l4 8v40l-20 20q1 8 8 8h4q8 0 8 -20h12v156h-40q-8 0 -8 8q1 8 8 8h52v8l-28 16v228q0 4 -4 4
q4 32 12 32zM2160 867h132q8 -1 8 -8v-140q0 -8 -8 -8h-20v-8q1 -8 8 -8h20v-4l-4 -8q16 -5 16 -36h192v24q-16 12 -16 24h-56q-8 0 -8 8l8 4h56v152q1 8 8 8h128q8 -1 8 -8v-148h-20l-24 -4q-7 4 -20 4v-16h64q0 -15 16 -24v-136h20q8 -1 8 -8v-4q0 -8 -8 -8h-20v-40
q0 -8 -16 -8v-140h-136q-8 0 -8 8v128q0 8 16 8v36l24 16v4q0 5 -32 16h-184v-72h32q8 -1 8 -8q0 -8 -8 -8h-52q-8 -1 -8 -8v-112q0 -8 -8 -8h-128q-8 0 -8 8v112q1 8 8 8h48q8 0 8 8v8h-32q-8 0 -8 8v192q-12 13 -12 24h-20q-8 0 -8 8q28 5 28 12v108q0 4 4 4l-4 8v24
q1 8 8 8zM1068 843v-8h8v8h-8zM80 691h4v-8h-4v8zM1296 675h8v-8h-8v8zM336 623h8q8 -1 8 -8v-4h-16q-8 0 -8 8zM308 619h8v-8h-8v8zM1680 595v-4h8v4h-8zM2468 535h12q8 -1 8 -8q0 -8 -8 -8h-12q-8 0 -8 8q1 8 8 8zM1888 487h12q8 -1 8 -8q-23 -20 -40 -20h-8v8q7 0 28 20z
M94 280h55q4 0 17 -38q3 0 3 -3l-3 -14q13 -50 20 -61l-7 -10h7l14 10q0 3 -4 3q14 69 28 69v3q0 7 -7 7q9 34 17 34h51q5 0 17 -38h4v-6q0 -4 -4 -4q17 -60 24 -68l-7 -10h4q14 0 24 61q17 65 24 65h54l7 -3q-14 -54 -31 -110q4 0 4 -3q-15 -10 -28 -10v-4q16 -7 24 -7v-3
q0 -2 -7 -10q0 -2 4 -14q-17 -64 -31 -75h-61q-6 0 -24 79l-11 23l-20 4v7q9 0 17 7l-3 6q3 19 3 28l-7 3q-3 -25 -7 -31q4 0 4 -3q-13 -10 -27 -10v-4q15 -7 23 -7v-6h-6q0 -12 3 -17q-17 -79 -24 -79h-65q-6 0 -27 82q-5 0 -10 20l-21 4v7l17 7q-10 12 -24 71q7 0 7 7
q-12 0 -17 38zM545 280q36 0 75 -34q37 -26 37 -85q7 3 11 3q0 7 -7 7q12 68 44 68v3h-7v7q0 18 96 31q40 0 92 -48q21 -37 21 -54v-14h3q20 3 20 10v38q0 7 -13 7v54q1 7 7 7h58q89 0 129 -61q28 -9 28 -48h3q10 40 10 48q-6 0 -6 6q22 28 30 28v3h-10v4q16 20 61 20
q28 0 86 -20q19 0 48 -38v-7q0 -9 -48 -24q-38 38 -58 38q-26 -7 -28 -7l4 -7q-21 -21 -27 -48h-17v-3q22 0 27 -41q3 0 3 -14h-3v-3q30 -14 37 -14q52 8 52 17q-4 7 -4 11q11 10 17 10q34 -17 58 -24q0 7 14 7q-7 22 -7 30l7 4l-3 17q0 8 3 14q0 6 -21 23q2 7 7 7l-3 17v48
q1 7 7 7h51q7 -1 7 -7v-54q0 -4 3 -4l-7 -17q17 -4 17 -10v-31q0 -15 -6 -27q5 0 10 -10v-4q0 -7 -10 -7q13 -20 34 -20q8 0 51 31v71q-11 0 -17 4l3 24v54q1 7 7 7h536q7 -1 7 -7v-27h7q1 29 13 34h86q82 -5 82 -58q3 0 3 -14v-24q-12 -44 -41 -44q7 -11 7 -20h-20v-4
q29 0 41 -17q0 -3 -4 -3q27 -43 27 -52l-6 -3h-58q-5 0 -11 10l4 7q-20 18 -28 48q-5 0 -17 10l4 7v3q0 7 -7 7h-3q0 -10 -7 -10q0 -3 3 -3l-3 -18v-30q0 -4 3 -4q-3 -27 -10 -27h-51q-7 0 -7 7v10q0 7 10 7v3q-5 0 -14 7h-3v-27q0 -7 -7 -7h-143q-7 0 -7 7v20h-10v7h24v4
h-11l4 17q-6 0 -10 34l3 7v24l-7 10l7 3q1 -7 7 -7h13v55q-10 0 -10 10h-51v-27q0 -10 -17 -10v-4q10 0 14 -17q-7 -3 -11 -3v-55q11 0 11 -7v-61q0 -7 -7 -7h-51q-7 0 -7 7v65h-14l3 17v37q0 7 11 7q-7 14 -7 21q5 0 10 10v27h-99v-27q0 -10 -17 -10v-4q10 0 14 -17
q-7 -1 -7 -7v-44l-4 -7q11 0 11 -7v-61q0 -7 -7 -7h-51q-7 0 -7 7v65h-10l3 17v37q1 7 7 7l-7 21q5 0 10 10v27h-58v-13q0 -4 4 -4l-11 -17q21 -4 21 -10v-72q-16 -9 -31 -41q-29 -34 -75 -34q-89 0 -113 61q-5 0 -30 -20h-11v-3h7v-4q-31 -34 -82 -34h-3q-76 0 -113 61v11
h10q-10 44 -17 44q-5 4 -17 4h-7v-4q14 0 14 -7q-12 -61 -27 -61q0 -10 -34 -10v-4h20v-7q-42 -27 -78 -27h-82q-7 0 -7 7v27h-24v7h24q0 14 10 14v3q-10 0 -10 10h-4q0 -11 -27 -13q-29 -55 -96 -55q-77 0 -112 58v3h13q-10 31 -10 41q0 7 31 7v4q-34 0 -34 -4
q-6 -51 -31 -51q-4 0 -41 -38q-28 -20 -68 -20q-73 0 -109 58v3q13 0 13 4q-7 11 -13 41q0 3 34 3v4q-27 0 -48 3v4l3 6q-7 0 -7 7q14 65 41 65h4v3h-7v7q34 31 96 31zM2361 280h140q7 -1 7 -7v-27q14 0 14 -7l-11 -7h-85v-3l14 -14v-31h75v-20h-17v-21q0 -6 -7 -6h-62
l-17 -4q5 -4 10 -41l7 -3h72q2 0 10 -7q-3 -41 -10 -41h-140q-7 0 -7 7v20h-10q0 -27 -27 -27h-11q-27 0 -27 34q21 21 34 21h7q24 0 24 -21h24v4q-14 0 -14 6q7 0 7 7q-6 8 -10 38l3 7v24l-7 10l17 -4h11v55q-14 0 -14 7v3l7 10q-14 0 -14 7v24q1 7 7 7zM2597 280h6
q76 -13 76 -34q-26 -34 -45 -34q-21 20 -34 20q-14 -5 -14 -10v-14q13 0 38 -20q65 -24 65 -38q-7 -1 -7 -7q17 -1 17 -10v-3l-14 -41q0 -9 -6 -17h10v-4q-14 -27 -72 -27q-35 0 -78 31q-19 0 -24 17v3q2 8 54 31q15 -31 34 -31h11q5 0 13 14v3l-3 17q3 0 3 4q-92 24 -92 68
q4 0 4 3q-17 8 -17 18q16 61 75 61zM91 242v-6h-7q1 6 7 6zM1982 232v-10q10 0 10 -7v-31h72q7 -1 7 -6v-7q0 -7 -21 -7v-21q0 -6 -6 -6h-55l-24 -4v-3q14 0 14 -41h78q7 0 7 -10h7v34l-4 7q7 3 11 3v51l3 17q-8 0 -14 4l4 24v13h-89zM2136 232v-24l-7 -10q17 -8 17 -10
q-3 -7 -3 -10h37q17 9 17 13q-6 0 -10 31q-13 10 -24 10h-27zM982 229v-10q13 0 13 -7v-38q0 -7 -27 -13v-4q14 0 14 -7v-48q0 -3 3 -3l-3 -7v-3h20q24 7 41 7v3h-7v3q24 32 24 52h-10v10l24 3q0 47 -68 62h-24zM476 174v-13q13 0 21 -7l-4 -7q0 -17 28 -45q-7 -3 -11 -3v-3
l31 -4q0 7 48 14q24 23 24 48v3q-17 0 -17 17h-27v7h23v3q-22 41 -51 41h-7q-58 -12 -58 -51zM726 171q0 -7 20 -17l-3 -7q0 -17 27 -45q-7 -3 -10 -3v-3q12 0 30 -4q0 7 48 14q25 23 28 51q-21 0 -21 17h-27v7h24v3q-20 41 -52 41h-6q-58 -12 -58 -54zM1040 167h7v-6h-7v6z
M166 154v-4h10v4h-10zM306 154v-4h6v4h-6zM176 147v-4h10v4h-10zM319 147v-4h7v4h-7zM193 137v-7q1 -7 7 -7q0 13 7 20h-7q-7 -1 -7 -6zM333 133q3 -6 3 -10h4q0 9 7 20h-7q-7 0 -7 -10zM422 130h3v-7h-3v7zM2115 120v-4h14v4h-14zM1265 113h3v-4q0 -5 -10 -10h-7v7
q6 0 14 7zM2030 75v-3h14v3h-14zM2477 75v-3h10v3h-10z" />
    <glyph glyph-name="partialdiff" unicode="&#x2202;" 
 />
    <glyph glyph-name="Delta" unicode="&#x2206;" horiz-adv-x="1081" 
 />
    <glyph glyph-name="product" unicode="&#x220f;" horiz-adv-x="1515" 
 />
    <glyph glyph-name="summation" unicode="&#x2211;" horiz-adv-x="1206" 
 />
    <glyph glyph-name="minus" unicode="&#x2212;" 
 />
    <glyph glyph-name="radical" unicode="&#x221a;" 
 />
    <glyph glyph-name="infinity" unicode="&#x221e;" 
 />
    <glyph glyph-name="integral" unicode="&#x222b;" horiz-adv-x="665" 
 />
    <glyph glyph-name="approxequal" unicode="&#x2248;" 
 />
    <glyph glyph-name="lessequal" unicode="&#x2264;" 
 />
    <glyph glyph-name="greaterequal" unicode="&#x2265;" 
 />
    <glyph glyph-name="uniF001" unicode="&#xf001;" horiz-adv-x="1073" 
 />
    <glyph glyph-name="uniF001" unicode="&#xfb01;" horiz-adv-x="1073" 
 />
    <glyph glyph-name="uniF002" unicode="&#xf002;" horiz-adv-x="1081" 
 />
    <glyph glyph-name="uniF002" unicode="&#xfb02;" horiz-adv-x="1081" 
 />
  </font>
</defs>
</svg>
